На всех торрентах на трекере установлена скидка на скачивание в размере 100 процентов(а).
 Возможность скачивания торрента НЕ зависит от ограничений при низком ратио, низком аплоаде, требуемом ратио или требуемом аплоаде.


Начать новую тему Ответить на тему
Статистика раздачи
Размер: 8.9 ГБ | Добавлен: 29 дек 2014, 23:02 | Скачали: 2
Сидеров: 318  [0 байт/сек]    Личеров: 8  [0 байт/сек]
Пред. тема | След. тема 

Автор
Сообщение

СообщениеДобавлено: 29 дек 2014, 23:02 

Год выпуска: 1994
Производство: США, Франция
Жанр: Триллер, драма, криминал

Режиссер: Боаз Якин
Продюсер: Лоуренс Бендер, Рэнди Остроу, Лила Казес
Актеры: Сэмюэл Л. Джексон, Шон Нелсон, Джанкарло Эспозито, Н'Буши Райт, Рон Брайс, Жан Ла Марр, Луис Лантигуа, Хосе Зунига, Юл Васкез, Шерил Фримэн, Энтони Томас, Кертис МакКлэрин, Чарльз Малик Уитфилд, Гильермо Диас, Энтони Руис, Хасинто Тарас Риддик, Джейсон Рейнс-Родригез, Ираида Поланко, Давиния МакФэдден, Элизабет Родригес, Мэттью Фабер, Скотт Николсон, Лоуренс Бендер, Трэйси Вилар

Описание фильма:
Умному и сообразительному подростку по кличке Дерзкий (Нелсон) удается вырваться из замкнутого круга преступности, наркотиков, насилия, бедности и безысходности. Вырвался он, однако, нестандартным и неоднозначным образом. Для этого он предал и подставил всех, кого ему было нужно использовать для достижения своей цели, и проделал это с хирургической точностью.

Перевод: Авторский (Вартан Дохалов)



Продолжительность: 01:53:55
Качество видео: BDRip (1080p)

Видеокодек: MPEG-4 AVC
Битрейт видео: ~9479 Кбит/с
Размер кадра: 1920x1080
Аудио:
1. AC3, 2 ch, 192 Кбит/с - русский (Вартан Дохалов)
2. DTS, 2 ch, 1510 Кбит/с - английский

Награды и номинации
Общее
Уникальный идентификатор : 175396611859053575468562911923984923421 (0x83F428A00FB19321BDE84C562E23FB1D)
Полное имя : C:\NNM\Дерзкий\Fresh 1994 BDRip 1080p.mkv
Формат : Matroska
Версия формата : Version 4 / Version 2
Размер файла : 8,90 Гбайт
Продолжительность : 1 ч. 53 м.
Общий поток : 11,2 Мбит/сек
Программа кодирования : mkvmerge v6.9.1 ('Blue Panther') 64bit built on Apr 18 2014 18:23:38
Библиотека кодирования : libebml v1.3.0 + libmatroska v1.4.1

Видео
Идентификатор : 1
Формат : AVC
Формат/Информация : Advanced Video Codec
Профиль формата :
Параметр CABAC формата : Да
Параметр ReFrames формата : 4 кадра
Идентификатор кодека : V_MPEG4/ISO/AVC
Продолжительность : 1 ч. 53 м.
Битрейт : 9479 Кбит/сек
Ширина : 1920 пикселей
Высота : 1080 пикселей
Соотношение сторон : 16:9
Частота кадров : 23,976 кадра/сек
Цветовое пространство : YUV
Субдискретизация насыщенности : 4:2:0
Битовая глубина : 8 бит
Тип развёртки : Прогрессивная
Бит/(Пиксели*Кадры) : 0.191
Размер потока : 7,36 Гбайт (83%)
Заголовок : Fresh (1994)
Библиотека кодирования : x264 core 130 r2273 b3065e6
Настройки программы : cabac=1 / ref=4 / deblock=1:0:0 / analyse=0x3:0x113 / me=umh / subme=8 / psy=1 / psy_rd=1.00:0.00 / mixed_ref=1 / me_range=16 / chroma_me=1 / trellis=1 / 8x8dct=1 / cqm=0 / deadzone=21,11 / fast_pskip=1 / chroma_qp_offset=-2 / threads=12 / lookahead_threads=2 / sliced_threads=0 / nr=0 / decimate=1 / interlaced=0 / bluray_compat=0 / constrained_intra=0 / bframes=3 / b_pyramid=2 / b_adapt=2 / b_bias=0 / direct=3 / weightb=1 / open_gop=0 / weightp=2 / keyint=240 / keyint_min=24 / scenecut=40 / intra_refresh=0 / rc_lookahead=50 / rc=2pass / mbtree=1 / bitrate=9479 / ratetol=1.0 / qcomp=0.60 / qpmin=0 / qpmax=69 / qpstep=4 / cplxblur=20.0 / qblur=0.5 / ip_ratio=1.40 / aq=1:1.00
Язык : English
Default : Да
Forced : Нет

Аудио #1
Идентификатор : 2
Формат : AC-3
Формат/Информация : Audio Coding 3
Расширение режима : CM (complete main)
Идентификатор кодека : A_AC3
Продолжительность : 1 ч. 53 м.
Вид битрейта : Постоянный
Битрейт : 192 Кбит/сек
Каналы : 2 канала
Расположение каналов : Front: L R
Частота : 48,0 КГц
Битовая глубина : 16 бит
Метод сжатия : С потерями
Размер потока : 156 Мбайт (2%)
Заголовок : AC3, 2 ch, 192 Kbps, Дохалов
Язык : Russian
Default : Да
Forced : Нет

Аудио #2
Идентификатор : 3
Формат : DTS
Формат/Информация : Digital Theater Systems
Идентификатор кодека : A_DTS
Продолжительность : 1 ч. 53 м.
Вид битрейта : Постоянный
Битрейт : 1510 Кбит/сек
Каналы : 2 канала
Расположение каналов : Front: L R
Частота : 48,0 КГц
Битовая глубина : 24 бит
Метод сжатия : С потерями
Размер потока : 1,20 Гбайт (14%)
Заголовок : DTS, 2 ch, 1509 Kbps, Original
Язык : English
Default : Нет
Forced : Нет

Текст #1
Идентификатор : 4
Формат : UTF-8
Идентификатор кодека : S_TEXT/UTF8
Идентификатор кодека/Информация : UTF-8 Plain Text
Язык : English
Default : Нет
Forced : Нет

Текст #2
Идентификатор : 5
Формат : UTF-8
Идентификатор кодека : S_TEXT/UTF8
Идентификатор кодека/Информация : UTF-8 Plain Text
Язык : Spanish
Default : Нет
Forced : Нет

Текст #3
Идентификатор : 6
Формат : UTF-8
Идентификатор кодека : S_TEXT/UTF8
Идентификатор кодека/Информация : UTF-8 Plain Text
Язык : Dutch
Default : Нет
Forced : Нет

Текст #4
Идентификатор : 7
Формат : UTF-8
Идентификатор кодека : S_TEXT/UTF8
Идентификатор кодека/Информация : UTF-8 Plain Text
Язык : Hebrew
Default : Нет
Forced : Нет

Меню
00:00:00.000 : en:00:00:00.000
00:08:52.824 : en:00:08:52.824
00:16:37.205 : en:00:16:37.205
00:26:41.683 : en:00:26:41.683
00:34:18.556 : en:00:34:18.556
00:46:42.800 : en:00:46:42.800
00:54:40.986 : en:00:54:40.986
01:05:01.314 : en:01:05:01.314
01:13:21.272 : en:01:13:21.272
01:20:15.644 : en:01:20:15.644
01:31:38.326 : en:01:31:38.326
01:48:37.094 : en:01:48:37.094
Скриншоты:

загрузка...
Правила, инструкции, FAQ!!!
Торрент  Добавлен [29 дек 2014, 23:02] Скачать торрент
Скачать торрент
[ Размер 45.17 КБ / Просмотров 29 ]

Статус
Проверен 
 
Размер  8.9 ГБ
Приватный: Нет (DHT включён)
.torrent скачан  2
Как залить торрент? | Как скачать Torrent? | Как смотреть и слушать онлайн?  


     Отправить личное сообщение
   
Страница 1 из 1
Показать сообщения за:  Поле сортировки  
Начать новую тему Ответить на тему

   Похожие торренты   Автор   Ответы   Просмотры   Последнее сообщение 
В этой теме нет новых непрочитанных сообщений. Скачать торрент Проверен Дерзкий / Fresh (1994) DVDRip

в форуме Драмы, Мелодрамы, Размер: 1.65 ГБ, Здоровье: 100%

Гость

0
14|2

72
0

29 дек 2014, 23:05

Гость Перейти к последнему сообщению

В этой теме нет новых непрочитанных сообщений. Скачать торрент Проверен (Electro) [EP][16/44] Doug E. Fresh And The Get Fresh Crew / Doug E. Fresh & M. C. Ricky D - The Show / La-Di-Da-Di - 1985, FLAC (tracks)

в форуме Электронная музыка (оцифровки), Размер: 111.31 МБ, Здоровье: 100%

Anonymous

0
2|1

2
0

15 сен 2016, 18:06

Anonymous Перейти к последнему сообщению

В этой теме нет новых непрочитанных сообщений. Скачать торрент Проверен (Psychedelic Rock) Fresh Air - A Breath Of Fresh Air - 1970 [2004], FLAC (tracks+.cue), lossless

в форуме Progressive & Art-Rock, Размер: 215.74 МБ, Здоровье: 0%

Anonymous

0
0|0

2
0

30 авг 2016, 00:54

Anonymous Перейти к последнему сообщению

В этой теме нет новых непрочитанных сообщений. Скачать торрент Проверен Ворон / The Crow (1994) BDRip 1080p

в форуме 720p | 1080p, Размер: 4.37 ГБ, Здоровье: 100%

Гость

0
56|24

27
132

15 ноя 2016, 23:52

Гость Перейти к последнему сообщению

В этой теме нет новых непрочитанных сообщений. Скачать торрент Проверен Флинстоуны / The Flintstones (1994) BDRip 1080p | P, P2, A

в форуме 720p | 1080p, Размер: 8.38 ГБ, Здоровье: 100%

Гость

0
7|2

48
157

08 дек 2014, 18:18

Гость Перейти к последнему сообщению



Сейчас этот форум просматривают: нет зарегистрированных пользователей и гости: 4


Вы не можете начинать темы
Вы не можете отвечать на сообщения
Вы не можете редактировать свои сообщения
Вы не можете удалять свои сообщения
Вы не можете добавлять вложения

Перейти:  

!ВНИМАНИЕ!
 Ресурс не предоставляет электронные версии произведений, а занимается лишь коллекционированием и каталогизацией ссылок, присылаемых и публикуемых на форуме нашими читателями. Если вы являетесь правообладателем какого-либо представленного материала и не желаете чтобы ссылка на него находилась в нашем каталоге, свяжитесь с нами и мы незамедлительно удалим её. Файлы для обмена на трекере предоставлены пользователями сайта, и администрация не несёт ответственности за их содержание. Просьба не заливать файлы, защищенные авторскими правами, а также файлы нелегального содержания!