На всех торрентах на трекере установлена скидка на скачивание в размере 100 процентов(а).
 Возможность скачивания торрента НЕ зависит от ограничений при низком ратио, низком аплоаде, требуемом ратио или требуемом аплоаде.


Начать новую тему Ответить на тему
Статистика раздачи
Размер: 10.48 ГБ | Добавлен: 28 дек 2014, 23:39 | Скачали: 129
Сидеров: 19  [0 байт/сек]    Личеров: 9  [0 байт/сек]
Пред. тема | След. тема 

Автор
Сообщение

СообщениеДобавлено: 28 дек 2014, 23:39 

Название: Изумрудный лес
Оригинальное название: The Emerald Forest
Год выхода: 1985
Жанр: драма, приключения
Режиссер: Джон Бурмэн / John Boorman
В ролях: Пауэрс Бут, Мег Фостер, Уильям Родригез, Эсте Чэндлер, Чарли Бурмен, Дира Паис, Эдуарду Конди, Ариэл Коэлью, Питер Маринкер

О фильме:
Место действия фильма — бразильские джунгли. Племя индейцев похищает пятилетнего мальчика, в то время как его отец, американский инженер, занят строительством дамбы. В течение десяти лет отец ищет сына, и после многочисленных приключений, полных экзотики, они встречаются в дебрях Амазонки.

Страна: Великобритания
Студия: Christel Films, Embassy Pictures
Продолжительность: 01:54:00.000
Перевод: Профессиональный (многоголосый закадровый)


Кодек: h.264
Качество: BDRip 720p
Видео: 1280x544 (2.35:1), 23.976 fps, AVC, ~12.6 Mbps, 0.754 bits/pixel
Звук: (все - двойное моно)
Русский, 48.0 KHz, AC3, 2 ch, 128 Kbps
Английский, 48.0 KHz, AC3, 2 ch, 448 Kbps
Субтитры: Английские, PGS (только перевод фраз на португальском)

Общее
Уникальный идентификатор : 211228599937499111534335093529868912846 (0x9EE92608E25AF0359F36A1A6AB5648CE)
Полное имя : E:FilmsIzumrudniy_les.1985.BDRip720p.mkv
Формат : Matroska
Версия формата : Version 4 / Version 2
Размер файла : 10,5 Гбайт
Продолжительность : 1 ч. 54 м.
Общий поток : 13,2 Мбит/сек
Дата кодирования : UTC 2014-12-28 09:48:59
Программа кодирования : mkvmerge v7.4.0 ('Circles') 64bit built on Dec 12 2014 12:19:56
Библиотека кодирования : libebml v1.3.0 + libmatroska v1.4.1
DURATION : 01:31:06.002000000
NUMBER_OF_FRAMES : 616
NUMBER_OF_BYTES : 2056910
_STATISTICS_WRITING_APP : mkvmerge v7.4.0 ('Circles') 64bit built on Dec 12 2014 12:19:56
_STATISTICS_WRITING_DATE_UTC : 2014-12-28 09:48:59
_STATISTICS_TAGS : BPS DURATION NUMBER_OF_FRAMES NUMBER_OF_BYTES

Видео
Идентификатор : 1
Формат : AVC
Формат/Информация : Advanced Video Codec
Профиль формата : High@L4.1
Параметр CABAC формата : Да
Параметр ReFrames формата : 9 кадров
Идентификатор кодека : V_MPEG4/ISO/AVC
Продолжительность : 1 ч. 54 м.
Битрейт : 12,6 Мбит/сек
Ширина : 1280 пикселей
Высота : 544 пикселя
Соотношение сторон : 2,35:1
Режим частоты кадров : Постоянный
Частота кадров : 23,976 кадра/сек
Цветовое пространство : YUV
Субдискретизация насыщенности : 4:2:0
Битовая глубина : 8 бит
Тип развёртки : Прогрессивная
Бит/(Пиксели*Кадры) : 0.754
Размер потока : 9,81 Гбайт (94%)
Библиотека кодирования : x264 core 142 r2431 ac76440
Настройки программы : cabac=1 / ref=9 / deblock=1:-3:-3 / analyse=0x3:0x133 / me=umh / subme=10 / psy=1 / psy_rd=1.10:0.10 / mixed_ref=1 / me_range=32 / chroma_me=1 / trellis=2 / 8x8dct=1 / cqm=0 / deadzone=21,11 / fast_pskip=0 / chroma_qp_offset=-6 / threads=8 / lookahead_threads=2 / sliced_threads=0 / nr=0 / decimate=0 / interlaced=0 / bluray_compat=0 / constrained_intra=0 / bframes=14 / b_pyramid=2 / b_adapt=2 / b_bias=0 / direct=3 / weightb=1 / open_gop=0 / weightp=2 / keyint=240 / keyint_min=23 / scenecut=40 / intra_refresh=0 / rc_lookahead=60 / rc=2pass / mbtree=0 / bitrate=12580 / ratetol=1.0 / qcomp=0.60 / qpmin=0 / qpmax=69 / qpstep=4 / cplxblur=20.0 / qblur=0.5 / vbv_maxrate=50000 / vbv_bufsize=62500 / nal_hrd=none / filler=0 / ip_ratio=1.40 / pb_ratio=1.30 / aq=1:1.00
Default : Нет
Forced : Нет
Основные цвета : BT.709
Характеристики трансфера : BT.709
Коэффициенты матрицы : BT.709
colour_range : Limited
DURATION : 01:53:59.375000000
NUMBER_OF_FRAMES : 163981
NUMBER_OF_BYTES : 10753045945
_STATISTICS_WRITING_APP : mkvmerge v7.4.0 ('Circles') 64bit built on Dec 12 2014 12:19:56
_STATISTICS_WRITING_DATE_UTC : 2014-12-28 09:48:59
_STATISTICS_TAGS : BPS DURATION NUMBER_OF_FRAMES NUMBER_OF_BYTES

Аудио #1
Идентификатор : 2
Формат : AC-3
Формат/Информация : Audio Coding 3
Расширение режима : CM (complete main)
Параметр Endianness формата : Big
Идентификатор кодека : A_AC3
Продолжительность : 1 ч. 54 м.
Вид битрейта : Постоянный
Битрейт : 128 Кбит/сек
Каналы : 2 канала
Расположение каналов : Front: L R
Частота : 48,0 КГц
Битовая глубина : 16 бит
Метод сжатия : С потерями
Размер потока : 104 Мбайт (1%)
Язык : Russian
Default : Да
Forced : Нет

Аудио #2
Идентификатор : 3
Формат : AC-3
Формат/Информация : Audio Coding 3
Расширение режима : CM (complete main)
Параметр Endianness формата : Big
Идентификатор кодека : A_AC3
Продолжительность : 1 ч. 54 м.
Вид битрейта : Постоянный
Битрейт : 448 Кбит/сек
Каналы : 2 канала
Расположение каналов : Front: L R
Частота : 48,0 КГц
Битовая глубина : 16 бит
Метод сжатия : С потерями
Размер потока : 365 Мбайт (3%)
Язык : English
Default : Нет
Forced : Нет

Текст
Идентификатор : 4
Формат : PGS
Режим смешивания : zlib
Идентификатор кодека : S_HDMV/PGS
Идентификатор кодека/Информация : The same subtitle format used on BDs/HD-DVDs
Язык : English
Default : Нет
Forced : Нет

Меню
00:00:00.000 : en:00:00:00.000
00:11:02.745 : en:00:11:02.745
00:18:25.313 : en:00:18:25.313
00:35:12.235 : en:00:35:12.235
00:48:33.869 : en:00:48:33.869
00:57:21.688 : en:00:57:21.688
01:18:56.023 : en:01:18:56.023
01:39:44.395 : en:01:39:44.395


frame I:885 Avg QP:17.54 size:158535
frame P:33107 Avg QP:19.68 size: 92688
frame B:129989 Avg QP:21.68 size: 58037
Шумоподавление не применялось.





Релиз от: Temperest
загрузка...
Правила, инструкции, FAQ!!!
Торрент  Добавлен [28 дек 2014, 23:39] Скачать торрент
Скачать торрент
[ Размер 26.86 КБ / Просмотров 5 ]

Статус
Проверен 
 
Размер  10.48 ГБ
Приватный: Нет (DHT включён)
.torrent скачан  129
Как залить торрент? | Как скачать Torrent? | Как смотреть и слушать онлайн?  


     Отправить личное сообщение
   
Страница 1 из 1
Показать сообщения за:  Поле сортировки  
Начать новую тему Ответить на тему

   Похожие торренты   Автор   Ответы   Просмотры   Последнее сообщение 
В этой теме нет новых непрочитанных сообщений. Скачать торрент Проверен Изумрудный лес / The Emerald Forest (1985) DVDRip

в форуме Приключения, Размер: 1.37 ГБ, Здоровье: 100%

Гость

0
3|1

153
2

28 дек 2014, 23:42

Гость Перейти к последнему сообщению

В этой теме нет новых непрочитанных сообщений. Скачать торрент Проверен (Progressive Folk Rock) Forest - Forest - 1969, FLAC (image+.cue) lossless

в форуме Progressive & Art-Rock, Размер: 282.13 МБ, Здоровье: 0%

Anonymous

0
0|0

10
0

30 авг 2016, 21:27

Anonymous Перейти к последнему сообщению

В этой теме нет новых непрочитанных сообщений. Скачать торрент Проверен Deep Forest - Forest Best (2000) [FLAC|Lossless]<New Age>

в форуме Зарубежная музыка, Размер: 418.19 МБ, Здоровье: 0%

Гость

0
0|0

104
0

12 янв 2015, 20:47

Гость Перейти к последнему сообщению

В этой теме нет новых непрочитанных сообщений. Скачать торрент Проверен (Heavy metal) Emerald (Hol) - Iron on Iron - 1985, FLAC (image+.cue)

в форуме Heavy, Power, Progressive (Metal), Размер: 270.23 МБ, Здоровье: 0%

Anonymous

0
0|0

2
0

10 окт 2016, 23:13

Anonymous Перейти к последнему сообщению

В этой теме нет новых непрочитанных сообщений. Скачать торрент Проверен (Heavy Metal) Emerald - Iron On Iron - 1985, MP3, 320 kbps

в форуме Heavy, Power, Progressive (Metal), Размер: 84.77 МБ, Здоровье: 0%

Anonymous

0
0|0

0
0

09 окт 2016, 13:55

Anonymous Перейти к последнему сообщению



Сейчас этот форум просматривают: нет зарегистрированных пользователей и гости: 3


Вы не можете начинать темы
Вы не можете отвечать на сообщения
Вы не можете редактировать свои сообщения
Вы не можете удалять свои сообщения
Вы не можете добавлять вложения

Перейти:  

!ВНИМАНИЕ!
 Ресурс не предоставляет электронные версии произведений, а занимается лишь коллекционированием и каталогизацией ссылок, присылаемых и публикуемых на форуме нашими читателями. Если вы являетесь правообладателем какого-либо представленного материала и не желаете чтобы ссылка на него находилась в нашем каталоге, свяжитесь с нами и мы незамедлительно удалим её. Файлы для обмена на трекере предоставлены пользователями сайта, и администрация не несёт ответственности за их содержание. Просьба не заливать файлы, защищенные авторскими правами, а также файлы нелегального содержания!