На всех торрентах на трекере установлена скидка на скачивание в размере 100 процентов(а).
 Возможность скачивания торрента НЕ зависит от ограничений при низком ратио, низком аплоаде, требуемом ратио или требуемом аплоаде.


Начать новую тему Ответить на тему
Статистика раздачи
Размер: 9.57 ГБ | Добавлен: 28 дек 2014, 18:18 | Скачали: 1
Сидеров: 69  [0 байт/сек]    Личеров: 9  [0 байт/сек]
Пред. тема | След. тема 

Автор
Сообщение

СообщениеДобавлено: 28 дек 2014, 18:18 

Год выпуска: 2001
Производство: США, Германия, Великобритания, Ирландия | Paramount Pictures, Reperage, Swanford Films, Mandalay Pictures, Little Bird, KC Medien AG, DOS, MP Film Management UNLS Produktion GmbH and Co. KG
Жанр: Триллер, Драма, Военный, История

Режиссер: Жан-Жак Анно
Продюсер: Жан-Жак Анно, Джон Д. Шофилд, Ален Годар
Актеры: Джуд Лоу, Рейчел Вайс, Джозеф Файннс, Эд Харрис, Боб Хоскинс, Рон Перлман, Ева Маттес, Гэбриел Томсон, Маттиас Хабих, София Ройз, Иван Шведов, Марио Банди, Ганс Мартин Штир

Описание фильма: 1942 год, разгар Сталинградской битвы. Немецкое командование направляет на передовую своего лучшего стрелка, майора Кенига, с особым заданием. Этот опытный и терпеливый профессионал - единственный, кто может попытаться справиться с русским «ангелом смерти» - неуловимым снайпером Василием Зайцевым. Зайцев - легенда и икона для защитников Сталинграда. Каждый день он выносит смертный приговор десяткам захватчиков, попавших в перекрестье его прицела. Между двумя уникальными снайперами начинается смертельная схватка, победителем из которой будет суждено выйти лишь одному…

Перевод: Профессиональный дублированный, профессиональный многоголосый, профессиональный двухголосый, авторский
Вид субтитров: Вшитые отключаемые
Язык субтитров: Русский, английский

Дата мировой премьеры: 7 февраля 2001
Дата российской премьеры: 6 апреля 2001, «Ист-Вест»
Дата выхода DVD релиза: 19 октября 2010, «Юниверсал Пикчерс Рус»

Продолжительность: 02:10:54
Возраст 16+: Зрителям, достигшим 16 лет
Рейтинг MPAA R: Лицам до 17 лет обязательно присутствие взрослого

Качество видео: BDRip [720p]
Видео: MPEG-4 AVC/H.264, 7000 Kbps, 1280 x 544
Аудио 1: Русский AC3 2.0, 192 Kbps, 48.0 KHz (Полное дублирование) Пифагор
Аудио 2: Русский AC3 2.0, 224 Kbps, 48.0 KHz (Многоголосый закадровый) Премьер
Аудио 3: Русский AC3 5.1, 384 Kbps, 48.0 KHz (Многоголосый закадровый) Universal
Аудио 4: Русский AC3 5.1, 384 Kbps, 48.0 KHz (Многоголосый закадровый) R1
Аудио 5: Русский AC3 5.1, 384 Kbps, 48.0 KHz (Двухголосый закадровый) П. Гланц и И. Королёва
Аудио 6: Русский AC3 5.1, 384 Kbps, 48.0 KHz (Одноголосый закадровый) Ю. Живов
Аудио 7: Английский DTS 5.1, 1509 Kbps, 48.0 KHz (Оригинал)
Общее
Полное имя : Враг у ворот.mkv
Формат : Matroska
Версия формата : Version 1
Размер файла : 9,57 Гбайт
Продолжительность : 2 ч. 10 м.
Общий поток : 10,5 Мбит/сек
Дата кодирования : UTC 2014-12-27 17:24:52
Программа кодирования : mkvmerge v2.4.1 ('Use Me') built on Dec 5 2008 18:30:05
Библиотека кодирования : libebml v0.7.7 + libmatroska v0.8.1

Видео
Идентификатор : 1
Формат : AVC
Формат/Информация : Advanced Video Codec
Профиль формата :
Параметр CABAC формата : Да
Параметр ReFrames формата : 10 кадров
Идентификатор кодека : V_MPEG4/ISO/AVC
Продолжительность : 2 ч. 10 м.
Битрейт : 7000 Кбит/сек
Ширина : 1280 пикселей
Высота : 544 пикселя
Соотношение сторон : 2,35:1
Режим частоты кадров : Постоянный
Частота кадров : 29,970 кадров/сек
Цветовое пространство : YUV
Субдискретизация насыщенности : 4:2:0
Битовая глубина : 8 бит
Тип развёртки : Прогрессивная
Бит/(Пиксели*Кадры) : 0.335
Размер потока : 6,21 Гбайт (65%)
Заголовок : Враг у ворот (2001)
Библиотека кодирования : x264 core 133 r2334 a3ac64b
Настройки программы : cabac=1 / ref=10 / deblock=1:-3:-3 / analyse=0x3:0x133 / me=umh / subme=10 / psy=1 / psy_rd=1.00:0.10 / mixed_ref=1 / me_range=48 / chroma_me=1 / trellis=2 / 8x8dct=1 / cqm=0 / deadzone=21,11 / fast_pskip=0 / chroma_qp_offset=-3 / threads=6 / lookahead_threads=1 / sliced_threads=0 / nr=0 / decimate=1 / interlaced=0 / bluray_compat=0 / constrained_intra=0 / bframes=5 / b_pyramid=2 / b_adapt=2 / b_bias=0 / direct=3 / weightb=1 / open_gop=0 / weightp=2 / keyint=300 / keyint_min=27 / scenecut=40 / intra_refresh=0 / rc_lookahead=40 / rc=2pass / mbtree=1 / bitrate=7000 / ratetol=1.0 / qcomp=0.60 / qpmin=10 / qpmax=51 / qpstep=4 / cplxblur=20.0 / qblur=0.5 / ip_ratio=1.40 / aq=1:1.00
Язык : English

Аудио #1
Идентификатор : 2
Формат : AC-3
Формат/Информация : Audio Coding 3
Расширение режима : CM (complete main)
Параметр Endianness формата : Big
Идентификатор кодека : A_AC3
Продолжительность : 2 ч. 10 м.
Вид битрейта : Постоянный
Битрейт : 192 Кбит/сек
Каналы : 2 канала
Расположение каналов : Front: L R
Частота : 48,0 КГц
Битовая глубина : 16 бит
Метод сжатия : С потерями
Размер потока : 180 Мбайт (2%)
Заголовок : AC3 (Дублированный) Пифагор
Язык : Russian

Аудио #2
Идентификатор : 3
Формат : AC-3
Формат/Информация : Audio Coding 3
Расширение режима : CM (complete main)
Параметр Endianness формата : Big
Идентификатор кодека : A_AC3
Продолжительность : 2 ч. 10 м.
Вид битрейта : Постоянный
Битрейт : 224 Кбит/сек
Каналы : 2 канала
Расположение каналов : Front: L R
Частота : 48,0 КГц
Битовая глубина : 16 бит
Метод сжатия : С потерями
Размер потока : 210 Мбайт (2%)
Заголовок : AC3 (Многоголосый) Премьер
Язык : Russian

Аудио #3
Идентификатор : 4
Формат : AC-3
Формат/Информация : Audio Coding 3
Расширение режима : CM (complete main)
Параметр Endianness формата : Big
Идентификатор кодека : A_AC3
Продолжительность : 2 ч. 10 м.
Вид битрейта : Постоянный
Битрейт : 384 Кбит/сек
Каналы : 6 каналов
Расположение каналов : Front: L C R, Side: L R, LFE
Частота : 48,0 КГц
Битовая глубина : 16 бит
Метод сжатия : С потерями
Размер потока : 360 Мбайт (4%)
Заголовок : AC3 (Многоголосый) Universal
Язык : Russian

Аудио #4
Идентификатор : 5
Формат : AC-3
Формат/Информация : Audio Coding 3
Расширение режима : CM (complete main)
Параметр Endianness формата : Big
Идентификатор кодека : A_AC3
Продолжительность : 2 ч. 10 м.
Вид битрейта : Постоянный
Битрейт : 384 Кбит/сек
Каналы : 6 каналов
Расположение каналов : Front: L C R, Side: L R, LFE
Частота : 48,0 КГц
Битовая глубина : 16 бит
Метод сжатия : С потерями
Размер потока : 360 Мбайт (4%)
Заголовок : AC3 (Многоголосый) R1
Язык : Russian

Аудио #5
Идентификатор : 6
Формат : AC-3
Формат/Информация : Audio Coding 3
Расширение режима : CM (complete main)
Параметр Endianness формата : Big
Идентификатор кодека : A_AC3
Продолжительность : 2 ч. 10 м.
Вид битрейта : Постоянный
Битрейт : 384 Кбит/сек
Каналы : 6 каналов
Расположение каналов : Front: L C R, Side: L R, LFE
Частота : 48,0 КГц
Битовая глубина : 16 бит
Метод сжатия : С потерями
Размер потока : 360 Мбайт (4%)
Заголовок : AC3 (Двухголосый) П. Гланц и И. Королёва
Язык : Russian

Аудио #6
Идентификатор : 7
Формат : AC-3
Формат/Информация : Audio Coding 3
Расширение режима : CM (complete main)
Параметр Endianness формата : Big
Идентификатор кодека : A_AC3
Продолжительность : 2 ч. 10 м.
Вид битрейта : Постоянный
Битрейт : 384 Кбит/сек
Каналы : 6 каналов
Расположение каналов : Front: L C R, Side: L R, LFE
Частота : 48,0 КГц
Битовая глубина : 16 бит
Метод сжатия : С потерями
Размер потока : 360 Мбайт (4%)
Заголовок : AC3 (Одноголосый) Ю. Живов
Язык : Russian

Аудио #7
Идентификатор : 8
Формат : DTS
Формат/Информация : Digital Theater Systems
Режим : 16
Параметр Endianness формата : Big
Идентификатор кодека : A_DTS
Продолжительность : 2 ч. 10 м.
Вид битрейта : Постоянный
Битрейт : 1509 Кбит/сек
Каналы : 6 каналов
Расположение каналов : Front: L C R, Side: L R, LFE
Частота : 48,0 КГц
Битовая глубина : 24 бит
Метод сжатия : С потерями
Задержка видео : 11 мс.
Размер потока : 1,38 Гбайт (14%)
Заголовок : DTS (Оригинал)
Язык : English

Текст #1
Идентификатор : 9
Формат : UTF-8
Идентификатор кодека : S_TEXT/UTF8
Идентификатор кодека/Информация : UTF-8 Plain Text
Заголовок : Русские
Язык : Russian

Текст #2
Идентификатор : 10
Формат : UTF-8
Идентификатор кодека : S_TEXT/UTF8
Идентификатор кодека/Информация : UTF-8 Plain Text
Заголовок : Английские
Язык : English
* Образ Людмилы — возможная ссылка на другого известного советского снайпера, Людмилу Павличенко. Она имела на своем счету более трехсот убийств, а Василий Зайцев — приблизительно 257.
* Название фильма взято из книги «Враг у ворот: Сражение за Сталинград» (1973) Уильяма Крейга (William Craig), в которой задокументированы реальные военные подвиги Василия Зайцева.
* Некоторые советские ветераны Сталинграда были настолько оскорблены неточностями в фильме, что они расценили как оскорбление то, как изображена Красная Армия. 7 мая 2001 года, вскоре после того, как прошла премьера фильма в России, ветераны выразили своё недовольство в Думе, требуя запрета фильма, однако эта просьба не была удовлетворена.
* В действительности никакого счастливого воссоединения Василия Зайцева и Тани Чеховой не было. До конца войны они считали друг друга мертвыми, и о том, что Василий жив, Таня узнала через несколько лет; он уже был женат.
* В действительности никакого майора Кёнига не существовало. Немцем, застреленным на поединке снайперов, был ас-снайпер полковник СС Хайнц Торвальд. Немцы, не желая признавать убийство своего лучшего снайпера, заявили, что убитый — майор Кёниг. Документы же, найденные Зайцевым на теле убитого, подтверждали, что это — Торвальд.

Скриншоты:

загрузка...
Правила, инструкции, FAQ!!!
Торрент  Добавлен [28 дек 2014, 18:18] Скачать торрент
Скачать торрент
[ Размер 24.72 КБ / Просмотров 10 ]

Статус
Проверен 
 
Размер  9.57 ГБ
Приватный: Нет (DHT включён)
.torrent скачан  1
Как залить торрент? | Как скачать Torrent? | Как смотреть и слушать онлайн?  


     Отправить личное сообщение
   
Страница 1 из 1
Показать сообщения за:  Поле сортировки  
Начать новую тему Ответить на тему

   Похожие торренты   Автор   Ответы   Просмотры   Последнее сообщение 
В этой теме нет новых непрочитанных сообщений. Скачать торрент Враг у ворот / Enemy at the Gates (2001) BDRip

в форуме Военные, Размер: 1.46 ГБ, Здоровье: 100%

Anonymous

0
76|2

113
566

21 дек 2013, 08:34

Anonymous Перейти к последнему сообщению

В этой теме нет новых непрочитанных сообщений. Скачать торрент Проверен [iPad] Враг у ворот / Enemy at the Gates (Жан-Жак Анно / Jean-Jacques Annaud) [2001, Германия, США, Великобритания, Ирландия, драма, военный, BDRip, 720p] (DUB | MVO | AVO | DVO | Original | Sub)

в форуме Фильмы для iPod, iPhone, iPad, Размер: 4.38 ГБ, Здоровье: 100%

Гость

0
17|4

138
1

14 май 2015, 00:18

Гость Перейти к последнему сообщению

В этой теме нет новых непрочитанных сообщений. Скачать торрент Враг у ворот / Enemy at the Gates (Жан-Жак Анно / Jean-Jacques Annaud) [2001, триллер, драма, военный, история, BDRip] MVO (Universal Pictures Rus)

в форуме Триллеры, Размер: 2.18 ГБ, Здоровье: 100%

Anonymous

0
18|6

42
0

24 апр 2014, 14:07

Anonymous Перейти к последнему сообщению

В этой теме нет новых непрочитанных сообщений. Скачать торрент Враг у ворот / Enemy at the Gates (Жан-Жак Анно / Jean-Jacques Annaud) [2001 г., Боевик, триллер, драма, военный, история, DVDRip] MVO

в форуме Боевики, Размер: 642.52 МБ, Здоровье: 100%

Anonymous

0
9|3

62
0

22 апр 2014, 11:48

Anonymous Перейти к последнему сообщению

В этой теме нет новых непрочитанных сообщений. Скачать торрент Проверен Враг / Enemy (2013) BDRip 720p | L2, | L1

в форуме 720p | 1080p, Размер: 4.73 ГБ, Здоровье: 100%

Anonymous

0
38|0

131
192

12 июн 2014, 13:49

Anonymous Перейти к последнему сообщению



Сейчас этот форум просматривают: нет зарегистрированных пользователей и гости: 1


Вы не можете начинать темы
Вы не можете отвечать на сообщения
Вы не можете редактировать свои сообщения
Вы не можете удалять свои сообщения
Вы не можете добавлять вложения

Перейти:  

!ВНИМАНИЕ!
 Ресурс не предоставляет электронные версии произведений, а занимается лишь коллекционированием и каталогизацией ссылок, присылаемых и публикуемых на форуме нашими читателями. Если вы являетесь правообладателем какого-либо представленного материала и не желаете чтобы ссылка на него находилась в нашем каталоге, свяжитесь с нами и мы незамедлительно удалим её. Файлы для обмена на трекере предоставлены пользователями сайта, и администрация не несёт ответственности за их содержание. Просьба не заливать файлы, защищенные авторскими правами, а также файлы нелегального содержания!