На всех торрентах на трекере установлена скидка на скачивание в размере 100 процентов(а).
 Возможность скачивания торрента НЕ зависит от ограничений при низком ратио, низком аплоаде, требуемом ратио или требуемом аплоаде.


Начать новую тему Ответить на тему
Статистика раздачи
Размер: 2.19 ГБ | Добавлен: 05 ноя 2012, 23:51 | Скачали: 0
Сидеров: 0  [0 байт/сек]    Личеров: 0  [0 байт/сек]
Пред. тема | След. тема 

Автор
Сообщение

СообщениеДобавлено: 05 ноя 2012, 23:51 

Информация о фильме

Название: Сорванец
Оригинальное название: Tomboy
Год выхода: 2011
Жанр: Драма

Режиссер: Селин Скьямма

В ролях: Зои Хэран, Малонн Левана, Жанна Диссон, Софи Каттани, Мэтью Деми, Йохан Вентре, Ноа Вентре, Шейенн Лене, Кристелль Барас

Сюжет фильма: Лоре десять лет. Вместе с родителями и младшей сестренкой Жанной она недавно переехала жить в новое место. На улице лето; соседские ребята весь день играют во дворе, но Лора пока что никого не знает. Она знакомится с Лизой, девочкой своего же возраста, и притворяется перед ней мальчиком. Так, Лора становится Михаэлем и начинает дружить с другими детьми. Постепенно они с Лизой сближаются, отчего положение Лоры-Михаэля становится все более двойственным.

Продолжительность: 01:21:47
Перевод: Профессиональный (двухголосый закадровый) [Студия Elrom]
Выпущено: Франция, Arte, Cofinova 6, Arte France, arte France Cinéma, Canal+ [fr], Centre National de la Cinématographie (CNC), Films Distribution, Hold Up Films, Lilies Films, Région Ile-de-France


Формат: mkv
Качество: BDRip [720p]
Видео: 1280x688, 3638 Кбит/сек, 24,000 кадр/сек, AVC, x264, 1,860, 0.172 Бит/[Пиксели*Кадры], 2pass
Аудио: AC-3, 192 Кбит/сек, 2 канала(ов), 48,0 КГц











Общее
Уникальный идентификатор : 215204817534190662662150644352799789967 (0xA1E6F0B2AFE66214A6E106E5DC64D38F)
Полное имя : E:ЗагрузкиTomboy.2011.x264.BDRip.720p.P2.mkv
Формат : Matroska
Версия формата : Version 2
Размер файла : 2,19 Гбайт
Продолжительность : 1 ч. 21 м.
Общий поток : 3830 Кбит/сек
Дата кодирования : UTC 2012-11-02 17:50:33
Программа кодирования : mkvmerge v5.5.0 ('Healer') built on Apr 6 2012 21:43:24
Библиотека кодирования : libebml v1.2.3 + libmatroska v1.3.0

Видео
Идентификатор : 1
Формат : AVC
Формат/Информация : Advanced Video Codec
Профиль формата : High@L3.1
Параметр CABAC формата : Да
Параметр ReFrames формата : 4 кадра
Идентификатор кодека : V_MPEG4/ISO/AVC
Продолжительность : 1 ч. 21 м.
Битрейт : 3638 Кбит/сек
Ширина : 1280 пикселей
Высота : 688 пикселей
Соотношение сторон : 1,860
Частота кадров : 24,000 кадра/сек
Цветовое пространство : YUV
Субдискретизация насыщенности : 4:2:0
Битовая глубина : 8 бит
Тип развёртки : Прогрессивная
Бит/(Пиксели*Кадры) : 0.172
Размер потока : 2,03 Гбайт (93%)
Заголовок : Сорванец
Библиотека кодирования : x264 core 128 r2216 198a7ea
Настройки программы : cabac=1 / ref=4 / deblock=1:0:0 / analyse=0x3:0x133 / me=hex / subme=7 / psy=1 / psy_rd=1.00:0.00 / mixed_ref=1 / me_range=16 / chroma_me=1 / trellis=1 / 8x8dct=1 / cqm=0 / deadzone=21,11 / fast_pskip=1 / chroma_qp_offset=-2 / threads=12 / lookahead_threads=2 / sliced_threads=0 / nr=0 / decimate=1 / interlaced=0 / bluray_compat=0 / constrained_intra=0 / bframes=3 / b_pyramid=2 / b_adapt=1 / b_bias=0 / direct=1 / weightb=1 / open_gop=0 / weightp=2 / keyint=240 / keyint_min=24 / scenecut=40 / intra_refresh=0 / rc_lookahead=40 / rc=2pass / mbtree=1 / bitrate=3638 / ratetol=1.0 / qcomp=0.60 / qpmin=10 / qpmax=51 / qpstep=4 / cplxblur=20.0 / qblur=0.5 / ip_ratio=1.40 / aq=1:1.00
Язык : English
Default : Да
Forced : Нет

Аудио
Идентификатор : 2
Формат : AC-3
Формат/Информация : Audio Coding 3
Расширение режима : CM (complete main)
Идентификатор кодека : A_AC3
Продолжительность : 1 ч. 21 м.
Вид битрейта : Постоянный
Битрейт : 192 Кбит/сек
Каналы : 2 канала
Расположение каналов : Front: L R
Частота : 48,0 КГц
Битовая глубина : 16 бит
Метод сжатия : С потерями
Размер потока : 112 Мбайт (5%)
Заголовок : Профессиональный двухголосый
Язык : Russian
Default : Да
Forced : Нет
загрузка...
Правила, инструкции, FAQ!!!
Торрент  Добавлен [05 ноя 2012, 23:51] Скачать торрент
Скачать торрент
[ Размер 11.51 КБ / Просмотров 14 ]

Статус
Проверен 
 
Размер  2.19 ГБ
Приватный: Нет (DHT включён)
.torrent скачан  0
Как залить торрент? | Как скачать Torrent? | Как смотреть и слушать онлайн?  


     Отправить личное сообщение
   
Страница 1 из 1
Показать сообщения за:  Поле сортировки  
Начать новую тему Ответить на тему

   Похожие торренты   Автор   Ответы   Просмотры   Последнее сообщение 
В этой теме нет новых непрочитанных сообщений. Скачать торрент Проверен Сорванец / Le garçu (1995) DVDRip | P2

в форуме Драмы, Мелодрамы, Размер: 1.46 ГБ, Здоровье: 100%

Гость

0
18|8

60
23

02 апр 2016, 21:56

Гость Перейти к последнему сообщению

В этой теме нет новых непрочитанных сообщений. Скачать торрент Проверен (Europop) Tomboy - OK2BGAY - 2006, FLAC (image+.cue), lossless

в форуме Зарубежная музыка, Размер: 350.71 МБ, Здоровье: 0%

Anonymous

0
0|0

0
0

12 авг 2016, 18:02

Anonymous Перейти к последнему сообщению

В этой теме нет новых непрочитанных сообщений. Скачать торрент Проверен Deep Purple with Orchestra - Live At Montreux 2011 [2011, Hard Rock, BDRip 720p]

в форуме Концерты (HD-Video), Размер: 7.95 ГБ, Здоровье: 100%

Anonymous

0
4|2

6
2

23 окт 2016, 19:00

Anonymous Перейти к последнему сообщению

В этой теме нет новых непрочитанных сообщений. Скачать торрент Проверен Simply Red - Farewell Live in Concert at Sydney Opera House [2011, 720p, DTS, LPCM] [2011, New Wave, Pop Rock, Blue-Eyed Soul, BDRip]

в форуме Концерты (HD-Video), Размер: 6.52 ГБ, Здоровье: 100%

Гость

0
8|8

167
3

03 май 2015, 22:19

Гость Перейти к последнему сообщению

В этой теме нет новых непрочитанных сообщений. Скачать торрент Проверен Елена (2011) BDRip 720p

в форуме Наше кино (HD Video), Размер: 5.06 ГБ, Здоровье: 100%

Гость

0
77|57

174
72

28 июл 2015, 18:15

Гость Перейти к последнему сообщению



Сейчас этот форум просматривают: нет зарегистрированных пользователей и гости: 2


Вы не можете начинать темы
Вы не можете отвечать на сообщения
Вы не можете редактировать свои сообщения
Вы не можете удалять свои сообщения
Вы не можете добавлять вложения

Перейти:  

!ВНИМАНИЕ!
 Ресурс не предоставляет электронные версии произведений, а занимается лишь коллекционированием и каталогизацией ссылок, присылаемых и публикуемых на форуме нашими читателями. Если вы являетесь правообладателем какого-либо представленного материала и не желаете чтобы ссылка на него находилась в нашем каталоге, свяжитесь с нами и мы незамедлительно удалим её. Файлы для обмена на трекере предоставлены пользователями сайта, и администрация не несёт ответственности за их содержание. Просьба не заливать файлы, защищенные авторскими правами, а также файлы нелегального содержания!