На всех торрентах на трекере установлена скидка на скачивание в размере 100 процентов(а).
 Возможность скачивания торрента НЕ зависит от ограничений при низком ратио, низком аплоаде, требуемом ратио или требуемом аплоаде.


Начать новую тему Ответить на тему
Статистика раздачи
Размер: 19.72 ГБ | Добавлен: 20 дек 2014, 15:36 | Скачали: 140
Сидеров: 23  [0 байт/сек]    Личеров: 0  [0 байт/сек]
Пред. тема | След. тема 

Автор
Сообщение

СообщениеДобавлено: 20 дек 2014, 15:36 

Название: Ю-571
Оригинальное название: U-571
Год выхода: 2000
Жанр: боевик, триллер, драма, военный
Режиссер: Джонатан Мостоу
В ролях: Мэттью МакКонахи, Билл Пэкстон, Харви Кейтель, Джон Бон Джови, Дэвид Кит, Томас Кречманн, Джейк Уэбер, Джек Ноузуорти, Том Гайри, Уилл Эстес, Терренс «Т.К.» Карсон, Эрик Палладино, Дэйв Пауэр, Дерк Читвуд, Мэттью Сеттл, Ребекка Тилни, Каролина Де Лаурентиис, Дина Де Лаурентиис, Бернелл Такер, Роб Эллин, Карстен Войт, Гюнтер Вургер, Оливер Стоковски, Арнд Клауиттер, Кай Морер, Роберт Лахода, Питер Старк, Эрих Редман, Уильям Джон Эванс, Робин Эсквив, Джаспер Вуд, Мартин Глейд, Оливер Остас, Корпорал Джон Уильям Фалконер, Корпорал Кори Глен Мэтьюз, Валентина Ардеатини

О фильме:
1942 год. Немецкие подводные лодки хозяйничают в Атлантике. Радиоперехваты не дают союзникам ничего: сообщения противника не поддаются расшифровке. И тогда американские моряки получают секретное задание: захватить вражескую субмарину U-571 и находящуюся на ее борту шифровальную машину «Энигма». Захватить… и вернуться обратно!



Страна: Франция, США
Студия: Canal Plus Image International, Dino De Laurentiis Productions, Universal Pictures
Продолжительность: 01:55:59
Перевод: Дублированный, авторский (одноголосый закадровый)


Кодек: h.264
Качество: BDRip 1080p
Видео: 13.2 Мбит/с, 1920x1080, 24.000 кадр/с

Звук:
• №1: Русский (АС3, 6 ch, 384 Кбит/с) Дублированный
• №2: Русский (DTS, 6 ch, 1509 Кбит/с) Авторский одноголосый [Андрей Гаврилов]
• №3: Русский (DTS, 6 ch, 1509 Кбит/с) Авторский одноголосый [Юрий Живов]
• №4: Русский (DTS, 6 ch, 1509 Кбит/с) Авторский одноголосый [Сергей Визгунов]
• №5: Русский (DTS, 6 ch, 1509 Кбит/с) Авторский одноголосый [Леонид Володарский]
• №6: Английский (DTS, 6 ch, 1509 Кбит/с)
Отдельно:
• №7: Русский (AC3, 6 ch, 640 Кбит/с) Авторский одноголосый [Андрей Гаврилов]
• №8: Русский (AC3, 6 ch, 640 Кбит/с) Авторский одноголосый [Юрий Живов]
• №9: Русский (AC3, 6 ch, 640 Кбит/с) Авторский одноголосый [Сергей Визгунов]
• №10: Русский (AC3, 6 ch, 640 Кбит/с) Авторский одноголосый [Леонид Володарский]
• №11: Английский (AC3, 6 ch, 640 Кбит/с)

Субтитры: Русские, английские

Благодарим за перевод Гаврилова: foxlight, Kastro, пуля, chef&chef, axl-dr, MyxAmoP, Nick, rydanes, Petro0999, aladdin911, LAVR, SavineX78, xerman13, Iceman, luka69, audiolubitel, uchitel538, Chistobaev, Loki1982, dir, GansAn, masta, kondratzx, skibichok, carnival, Диммон, karantin66, v1111o
---------------------------------------------------------------------------
x264 [info]: frame I:996 Avg QP:16.71 size:189562
x264 [info]: frame P:36158 Avg QP:19.00 size:117676
x264 [info]: frame B:129883 Avg QP:21.28 size: 54244
---------------------------------------------------------------------------

U-571.-Open.Matte-.2000.x264.BDRip.1080p.0ptimus.mkv
Формат : Matroska
Версия формата : Version 2
Размер файла : 17,1 Гбайт
Продолжительность : 1 ч. 55 м.
Общий поток : 21,1 Мбит/сек
Название фильма : Ю-571 | U-571 [2000] Open Matte -= BDRip 1080p by 0ptimus =-
Дата кодирования : UTC 2014-12-19 14:45:34
Программа кодирования : mkvmerge v6.6.0 ('The Edge Of The In Between') built on Dec 1 2013 17:55:00
Библиотека кодирования : libebml v1.3.0 + libmatroska v1.4.1

Видео
Идентификатор : 1
Формат : AVC
Формат/Информация : Advanced Video Codec
Профиль формата : High@L4.1
Параметр CABAC формата : Да
Параметр ReFrames формата : 4 кадра
Идентификатор кодека : V_MPEG4/ISO/AVC
Продолжительность : 1 ч. 55 м.
Битрейт : 13,2 Мбит/сек
Ширина : 1920 пикселей
Высота : 1080 пикселей
Соотношение сторон : 16:9
Режим частоты кадров : Постоянный
Частота кадров : 24,000 кадра/сек
Цветовое пространство : YUV
Субдискретизация насыщенности : 4:2:0
Битовая глубина : 8 бит
Тип развёртки : Прогрессивная
Бит/(Пиксели*Кадры) : 0.266
Размер потока : 10,4 Гбайт (61%)
Заголовок : Rip by 0ptimus
Библиотека кодирования : x264 core 133 r2334 a3ac64b
Настройки программы : cabac=1 / ref=4 / deblock=1:-3:-3 / analyse=0x3:0x113 / me=umh / subme=11 / psy=1 / psy_rd=1.00:0.20 / mixed_ref=1 / me_range=32 / chroma_me=1 / trellis=2 / 8x8dct=1 / cqm=0 / deadzone=21,11 / fast_pskip=0 / chroma_qp_offset=-3 / threads=4 / lookahead_threads=1 / sliced_threads=0 / nr=0 / decimate=0 / interlaced=0 / bluray_compat=0 / constrained_intra=0 / bframes=9 / b_pyramid=2 / b_adapt=2 / b_bias=0 / direct=3 / weightb=1 / open_gop=0 / weightp=2 / keyint=240 / keyint_min=24 / scenecut=40 / intra_refresh=0 / rc_lookahead=40 / rc=2pass / mbtree=0 / bitrate=13214 / ratetol=1.0 / qcomp=0.60 / qpmin=0 / qpmax=69 / qpstep=4 / cplxblur=20.0 / qblur=0.5 / vbv_maxrate=50000 / vbv_bufsize=62500 / nal_hrd=none / ip_ratio=1.40 / pb_ratio=1.30 / aq=1:1.00
Язык : English
Default : Да
Forced : Да

Аудио #1
Идентификатор : 2
Формат : AC-3
Формат/Информация : Audio Coding 3
Расширение режима : CM (complete main)
Параметр Endianness формата : Big
Идентификатор кодека : A_AC3
Продолжительность : 1 ч. 55 м.
Вид битрейта : Постоянный
Битрейт : 384 Кбит/сек
Каналы : 6 каналов
Расположение каналов : Front: L C R, Side: L R, LFE
Частота : 48,0 КГц
Битовая глубина : 16 бит
Метод сжатия : С потерями
Размер потока : 319 Мбайт (2%)
Заголовок : Дублированный AC3 5.1 @ 384 kbps
Язык : Russian
Default : Да
Forced : Да

Аудио #2
Идентификатор : 3
Формат : DTS
Формат/Информация : Digital Theater Systems
Режим : 16
Параметр Endianness формата : Big
Идентификатор кодека : A_DTS
Продолжительность : 1 ч. 55 м.
Вид битрейта : Постоянный
Битрейт : 1509 Кбит/сек
Каналы : 6 каналов
Расположение каналов : Front: L C R, Side: L R, LFE
Частота : 48,0 КГц
Битовая глубина : 24 бит
Метод сжатия : С потерями
Размер потока : 1,22 Гбайт (7%)
Заголовок : Авторский [Андрей Гаврилов] DTS 5.1 @ 1509 kbps
Язык : Russian
Default : Нет
Forced : Нет

Аудио #3
Идентификатор : 4
Формат : DTS
Формат/Информация : Digital Theater Systems
Режим : 16
Параметр Endianness формата : Big
Идентификатор кодека : A_DTS
Продолжительность : 1 ч. 55 м.
Вид битрейта : Постоянный
Битрейт : 1509 Кбит/сек
Каналы : 6 каналов
Расположение каналов : Front: L C R, Side: L R, LFE
Частота : 48,0 КГц
Битовая глубина : 24 бит
Метод сжатия : С потерями
Размер потока : 1,22 Гбайт (7%)
Заголовок : Авторский [Юрий Живов] DTS 5.1 @ 1509 kbps
Язык : Russian
Default : Нет
Forced : Нет

Аудио #4
Идентификатор : 5
Формат : DTS
Формат/Информация : Digital Theater Systems
Режим : 16
Параметр Endianness формата : Big
Идентификатор кодека : A_DTS
Продолжительность : 1 ч. 55 м.
Вид битрейта : Постоянный
Битрейт : 1509 Кбит/сек
Каналы : 6 каналов
Расположение каналов : Front: L C R, Side: L R, LFE
Частота : 48,0 КГц
Битовая глубина : 16 бит
Метод сжатия : С потерями
Размер потока : 1,22 Гбайт (7%)
Заголовок : Авторский [Сергей Визгунов] DTS 5.1 @ 1509 kbps
Язык : Russian
Default : Нет
Forced : Нет

Аудио #5
Идентификатор : 6
Формат : DTS
Формат/Информация : Digital Theater Systems
Режим : 16
Параметр Endianness формата : Big
Идентификатор кодека : A_DTS
Продолжительность : 1 ч. 55 м.
Вид битрейта : Постоянный
Битрейт : 1509 Кбит/сек
Каналы : 6 каналов
Расположение каналов : Front: L C R, Side: L R, LFE
Частота : 48,0 КГц
Битовая глубина : 24 бит
Метод сжатия : С потерями
Размер потока : 1,22 Гбайт (7%)
Заголовок : Авторский [Леонид Володарский] DTS 5.1 @ 1509 kbps
Язык : Russian
Default : Нет
Forced : Нет

Аудио #6
Идентификатор : 7
Формат : DTS
Формат/Информация : Digital Theater Systems
Режим : 16
Параметр Endianness формата : Big
Идентификатор кодека : A_DTS
Продолжительность : 1 ч. 55 м.
Вид битрейта : Постоянный
Битрейт : 1509 Кбит/сек
Каналы : 6 каналов
Расположение каналов : Front: L C R, Side: L R, LFE
Частота : 48,0 КГц
Битовая глубина : 16 бит
Метод сжатия : С потерями
Размер потока : 1,22 Гбайт (7%)
Заголовок : DTS 5.1 @ 1509 kbps
Язык : English
Default : Нет
Forced : Нет

Текст #1
Идентификатор : 8
Формат : UTF-8
Идентификатор кодека : S_TEXT/UTF8
Идентификатор кодека/Информация : UTF-8 Plain Text
Язык : Russian
Default : Нет
Forced : Нет

Текст #2
Идентификатор : 9
Формат : UTF-8
Идентификатор кодека : S_TEXT/UTF8
Идентификатор кодека/Информация : UTF-8 Plain Text
Заголовок : SDH
Язык : English
Default : Нет
Forced : Нет

Меню
00:00:00.000 : ru:Chapter 01 (00:00:00)
00:08:42.708 : ru:Chapter 02 (00:08:42)
00:20:55.750 : ru:Chapter 03 (00:20:55)
00:32:20.916 : ru:Chapter 04 (00:32:20)
00:41:19.875 : ru:Chapter 05 (00:41:19)
00:50:21.041 : ru:Chapter 06 (00:50:21)
00:58:55.833 : ru:Chapter 07 (00:58:55)
01:07:05.000 : ru:Chapter 08 (01:07:05)
01:16:46.541 : ru:Chapter 09 (01:16:46)
01:27:20.125 : ru:Chapter 10 (01:27:20)
01:37:19.458 : ru:Chapter 11 (01:37:19)
01:49:31.000 : ru:Chapter 12 (01:49:31)




Релиз от:
загрузка...
Правила, инструкции, FAQ!!!
Торрент  Добавлен [20 дек 2014, 15:36] Скачать торрент
Скачать торрент
[ Размер 100.32 КБ / Просмотров 12 ]

Статус
Проверен 
 
Размер  19.72 ГБ
Приватный: Нет (DHT включён)
.torrent скачан  140
Как залить торрент? | Как скачать Torrent? | Как смотреть и слушать онлайн?  


     Отправить личное сообщение
   
Страница 1 из 1
Показать сообщения за:  Поле сортировки  
Начать новую тему Ответить на тему

   Похожие торренты   Автор   Ответы   Просмотры   Последнее сообщение 
В этой теме нет новых непрочитанных сообщений. Скачать торрент Ю-571 / U-571 (2000) BDRip-AVC | D, A | Open Matte

в форуме Военные, Размер: 3.27 ГБ, Здоровье: 100%

Anonymous

0
6|2

72
60

10 янв 2014, 11:37

Anonymous Перейти к последнему сообщению

В этой теме нет новых непрочитанных сообщений. Скачать торрент Хулиганы / Green Street Hooligans (2005) BDRip 1080p | Р | Open Matte

в форуме 720p | 1080p, Размер: 9.98 ГБ, Здоровье: 100%

Anonymous

0
12|1

48
126

27 мар 2014, 15:11

Anonymous Перейти к последнему сообщению

В этой теме нет новых непрочитанных сообщений. Скачать торрент Проверен Война / War (2007) BDRip | D | Open Matte

в форуме Боевики, Размер: 1.46 ГБ, Здоровье: 100%

Гость

0
89|67

72
75

09 апр 2015, 19:41

Гость Перейти к последнему сообщению

В этой теме нет новых непрочитанных сообщений. Скачать торрент Проверен Телепорт / Jumper (2008) BDRip-AVC | Open Matte

в форуме Фантастика, Фэнтези, Размер: 1.46 ГБ, Здоровье: 100%

Гость

0
119|4

45
631

29 ноя 2014, 20:48

Гость Перейти к последнему сообщению

В этой теме нет новых непрочитанных сообщений. Скачать торрент Проверен Пришельцы 2: Коридоры времени / Les visiteurs 2: Les couloirs du temps (1998) HDTV 1080p | Open Matte

в форуме 720p | 1080p, Размер: 7.42 ГБ, Здоровье: 100%

Anonymous

0
41|38

139
13

15 янв 2015, 19:33

Anonymous Перейти к последнему сообщению



Сейчас этот форум просматривают: нет зарегистрированных пользователей и гости: 1


Вы не можете начинать темы
Вы не можете отвечать на сообщения
Вы не можете редактировать свои сообщения
Вы не можете удалять свои сообщения
Вы не можете добавлять вложения

Перейти:  

!ВНИМАНИЕ!
 Ресурс не предоставляет электронные версии произведений, а занимается лишь коллекционированием и каталогизацией ссылок, присылаемых и публикуемых на форуме нашими читателями. Если вы являетесь правообладателем какого-либо представленного материала и не желаете чтобы ссылка на него находилась в нашем каталоге, свяжитесь с нами и мы незамедлительно удалим её. Файлы для обмена на трекере предоставлены пользователями сайта, и администрация не несёт ответственности за их содержание. Просьба не заливать файлы, защищенные авторскими правами, а также файлы нелегального содержания!