На всех торрентах на трекере установлена скидка на скачивание в размере 100 процентов(а).
 Возможность скачивания торрента НЕ зависит от ограничений при низком ратио, низком аплоаде, требуемом ратио или требуемом аплоаде.


Начать новую тему Ответить на тему
Статистика раздачи
Размер: 9.7 ГБ | Добавлен: 20 дек 2014, 01:02 | Скачали: 77
Сидеров: 27  [0 байт/сек]    Личеров: 15  [0 байт/сек]
Пред. тема | След. тема 

Автор
Сообщение

СообщениеДобавлено: 20 дек 2014, 01:02 

Год выпуска: 2000
Страна: США, Германия
Жанр: триллер, драма, криминал
Продолжительность: 02:27:05
Перевод: дублированный, профессиональный многоголосый, авторский
Субтитры: русские, английские

Режиссёр: Стивен Содерберг

В ролях: Майкл Дуглас, Бенисио Дель Торо, Кэтрин Зета-Джонс, Дон Чидл, Дэннис Куэйд, Луис Гузман, Джейкоб Варгас, Эндрю Чавез, Майкл Сауседо, Томас Милиан, Хосе Йенке, Эмилио Ривера, Майкл О`Нилл, Расселл Дж. Джонс, Лорен Хетерингтон, Эрик Коллинз, Бо Холден, Питер Стэдер, Джеймс Лью, Джереми Фицджералд, Расселл Солберг, Дон Снелл, Энрике Мурсиано, Гэри Сервантес, Летисия Бомбардье, Мигель Феррер, Карл Киарфалио, Стивен Ламберт, Гилберт Розалес, Рик Эйвери, Марио Робертс, Эйлин Вейзингер, Кеии Джонстон, Майк Уотсон, Курт Д. Лотт, Линкольн Симондз

Описание: Верховный Судья Роберт Уэйкфилд получает лично от президента США задание возглавить массированную войну против торговцев наркотиками, как саранча ползущих через южную границу. Наркобароны и коррумпированные полицейские, частные детективы и безобидные, на первый взгляд, домохозяйки выстраиваются в запутанную схему, вид на которую с высоты птичьего полёта демонстрирует нам режиссёр. В конце концов судья обнаруживает, что его собственная семнадцатилетняя дочь сидит на героине. Но карты уже сданы, распоряжения сделаны, и никто не отмоется!



Качество: BDRip 720p
Формат: MKV
Видео кодек: H.264
Аудио кодек: AC3
Видео: 1280x720, 7719 kbps, 23.976 кадра/с, 0.349 bpp
Аудио 1: русский, AC3, 448 kbps, 6 ch, 48 kHz [дублированный со вставками MVO]
Аудио 2: русский, AC3, 192 kbps, 2 ch, 48 kHz [профессиональный многоголосый, PTP]
Аудио 3: русский, AC3, 448 kbps, 6 ch, 48 kHz [авторский, Юрий Живов]
Аудио 4: английский, AC3, 448 kbps, 6 ch, 48 kHz [оригинал]

Премия за лучший иностранный фильм в Норвегии.

Сезар, 2002 год
Номинации (1):
Лучший фильм на иностранном языке

Оскар, 2001 год
Победитель (4):
Лучшая мужская роль второго плана (Бенисио Дель Торо)
Лучший режиссер (Стивен Содерберг)
Лучший адаптированный сценарий
Лучший монтаж

Номинации (1):
Лучший фильм

Золотой глобус, 2001 год
Победитель (2):
Лучшая мужская роль второго плана (Бенисио Дель Торо)
Лучший сценарий

Номинации (3):
Лучший фильм (драма)
Лучшая женская роль второго плана (Кэтрин Зета-Джонс)
Лучший режиссер (Стивен Содерберг)

Премия канала «MTV», 2001 год
Победитель (1):
Женский прорыв года (Эрика Кристенсен)

Британская академия, 2001 год
Победитель (2):
Лучшая мужская роль второго плана (Бенисио Дель Торо)
Лучший адаптированный сценарий

Номинации (2):
Лучший монтаж
Премия имени Дэвида Лина за достижения в режиссуре (Стивен Содерберг)

Берлинский кинофестиваль, 2001 год
Победитель (1):
Серебряный Медведь за лучшую мужскую роль (Бенисио Дель Торо)

Номинации (1):
Золотой Медведь

Сатурн, 2001 год
Номинации (1):
Лучший приключенческий фильм, боевик или триллер

Премия Гильдии актеров, 2001 год
Победитель (2):
Лучший актерский состав
Лучшая мужская роль (Бенисио Дель Торо)

Общее
Уникальный идентификатор : 246847432165496594149269736085447415400 (0xB9B5160CA2056B63BF4615A4D8A69668)
Полное имя : D:VideoTraffik.2000.BDRip.720p.mkv
Формат : Matroska
Версия формата : Version 4 / Version 2
Размер файла : 9,70 Гбайт
Продолжительность : 2 ч. 27 м.
Общий поток : 9443 Кбит/сек
Дата кодирования : UTC 2014-12-19 03:31:49
Программа кодирования : mkvmerge v7.4.0 ('Circles') 64bit built on Dec 12 2014 12:19:56
Библиотека кодирования : libebml v1.3.0 + libmatroska v1.4.1
DURATION : 02:19:00.140000000
NUMBER_OF_FRAMES : 1514
NUMBER_OF_BYTES : 61694
_STATISTICS_WRITING_APP : mkvmerge v7.4.0 ('Circles') 64bit built on Dec 12 2014 12:19:56
_STATISTICS_WRITING_DATE_UTC : 2014-12-19 03:31:49
_STATISTICS_TAGS : BPS DURATION NUMBER_OF_FRAMES NUMBER_OF_BYTES

Видео
Идентификатор : 1
Формат : AVC
Формат/Информация : Advanced Video Codec
Профиль формата : High@L4.1
Параметр CABAC формата : Да
Параметр ReFrames формата : 9 кадров
Идентификатор кодека : V_MPEG4/ISO/AVC
Продолжительность : 2 ч. 27 м.
Битрейт : 7719 Кбит/сек
Ширина : 1280 пикселей
Высота : 720 пикселей
Соотношение сторон : 16:9
Режим частоты кадров : Постоянный
Частота кадров : 23,976 кадра/сек
Цветовое пространство : YUV
Субдискретизация насыщенности : 4:2:0
Битовая глубина : 8 бит
Тип развёртки : Прогрессивная
Бит/(Пиксели*Кадры) : 0.349
Размер потока : 7,93 Гбайт (82%)
Заголовок : BDRip -- Tarankov
Библиотека кодирования : x264 core 142 r2431 ac76440
Настройки программы : cabac=1 / ref=9 / deblock=1:-1:-1 / analyse=0x3:0x113 / me=umh / subme=10 / psy=1 / psy_rd=1.00:0.15 / mixed_ref=1 / me_range=32 / chroma_me=1 / trellis=2 / 8x8dct=1 / cqm=0 / deadzone=21,11 / fast_pskip=1 / chroma_qp_offset=-3 / threads=6 / lookahead_threads=1 / sliced_threads=0 / nr=0 / decimate=1 / interlaced=0 / bluray_compat=0 / constrained_intra=0 / bframes=8 / b_pyramid=2 / b_adapt=2 / b_bias=0 / direct=3 / weightb=1 / open_gop=0 / weightp=2 / keyint=230 / keyint_min=23 / scenecut=40 / intra_refresh=0 / rc_lookahead=40 / rc=crf / mbtree=0 / crf=19.0 / qcomp=0.60 / qpmin=0 / qpmax=69 / qpstep=4 / vbv_maxrate=40000 / vbv_bufsize=50000 / crf_max=0.0 / nal_hrd=none / filler=0 / ip_ratio=1.40 / pb_ratio=1.30 / aq=1:1.00
Язык : English
Default : Да
Forced : Нет
DURATION : 02:27:05.817000000
NUMBER_OF_FRAMES : 211608
NUMBER_OF_BYTES : 8720297584
_STATISTICS_WRITING_APP : mkvmerge v7.4.0 ('Circles') 64bit built on Dec 12 2014 12:19:56
_STATISTICS_WRITING_DATE_UTC : 2014-12-19 03:31:49
_STATISTICS_TAGS : BPS DURATION NUMBER_OF_FRAMES NUMBER_OF_BYTES

Аудио #1
Идентификатор : 2
Формат : AC-3
Формат/Информация : Audio Coding 3
Расширение режима : CM (complete main)
Параметр Endianness формата : Big
Идентификатор кодека : A_AC3
Продолжительность : 2 ч. 27 м.
Вид битрейта : Постоянный
Битрейт : 448 Кбит/сек
Каналы : 6 каналов
Расположение каналов : Front: L C R, Side: L R, LFE
Частота : 48,0 КГц
Битовая глубина : 16 бит
Метод сжатия : С потерями
Размер потока : 471 Мбайт (5%)
Заголовок : DUB (со вставками MVO)
Язык : Russian
Default : Да
Forced : Нет

Аудио #2
Идентификатор : 3
Формат : AC-3
Формат/Информация : Audio Coding 3
Расширение режима : CM (complete main)
Параметр Endianness формата : Big
Идентификатор кодека : A_AC3
Продолжительность : 2 ч. 27 м.
Вид битрейта : Постоянный
Битрейт : 192 Кбит/сек
Каналы : 2 канала
Расположение каналов : Front: L R
Частота : 48,0 КГц
Битовая глубина : 16 бит
Метод сжатия : С потерями
Размер потока : 202 Мбайт (2%)
Заголовок : MVO (PTP)
Язык : Russian
Default : Нет
Forced : Нет

Аудио #3
Идентификатор : 4
Формат : AC-3
Формат/Информация : Audio Coding 3
Расширение режима : CM (complete main)
Параметр Endianness формата : Big
Идентификатор кодека : A_AC3
Продолжительность : 2 ч. 27 м.
Вид битрейта : Постоянный
Битрейт : 448 Кбит/сек
Каналы : 6 каналов
Расположение каналов : Front: L C R, Side: L R, LFE
Частота : 48,0 КГц
Битовая глубина : 16 бит
Метод сжатия : С потерями
Размер потока : 471 Мбайт (5%)
Заголовок : AVO (Юрий Живов)
Язык : Russian
Default : Нет
Forced : Нет

Аудио #4
Идентификатор : 5
Формат : AC-3
Формат/Информация : Audio Coding 3
Расширение режима : CM (complete main)
Параметр Endianness формата : Big
Идентификатор кодека : A_AC3
Продолжительность : 2 ч. 27 м.
Вид битрейта : Постоянный
Битрейт : 448 Кбит/сек
Каналы : 6 каналов
Расположение каналов : Front: L C R, Side: L R, LFE
Частота : 48,0 КГц
Битовая глубина : 16 бит
Метод сжатия : С потерями
Размер потока : 471 Мбайт (5%)
Заголовок : Original
Язык : English
Default : Нет
Forced : Нет

Текст #1
Идентификатор : 6
Формат : UTF-8
Идентификатор кодека : S_TEXT/UTF8
Идентификатор кодека/Информация : UTF-8 Plain Text
Заголовок : русский
Язык : Russian
Default : Нет
Forced : Нет

Текст #2
Идентификатор : 7
Формат : UTF-8
Идентификатор кодека : S_TEXT/UTF8
Идентификатор кодека/Информация : UTF-8 Plain Text
Заголовок : английский
Default : Нет
Forced : Нет


загрузка...
Правила, инструкции, FAQ!!!
Торрент  Добавлен [20 дек 2014, 01:02] Скачать торрент
Скачать торрент
[ Размер 24.78 КБ / Просмотров 2 ]

Статус
Проверен 
 
Размер  9.7 ГБ
Приватный: Нет (DHT включён)
.torrent скачан  77
Как залить торрент? | Как скачать Torrent? | Как смотреть и слушать онлайн?  


     Отправить личное сообщение
   
Страница 1 из 1
Показать сообщения за:  Поле сортировки  
Начать новую тему Ответить на тему

   Похожие торренты   Автор   Ответы   Просмотры   Последнее сообщение 
В этой теме нет новых непрочитанных сообщений. Скачать торрент Проверен Траффик / Traffic (2000) BDRip 1080p | D, P, A

в форуме 720p | 1080p, Размер: 20.83 ГБ, Здоровье: 100%

Anonymous

0
5|2

39
0

11 апр 2015, 12:34

Anonymous Перейти к последнему сообщению

В этой теме нет новых непрочитанных сообщений. Скачать торрент Проверен (Progressive/Psychedelic Rock) [LP][24/96] Traffic - Traffic (UK 1975 re-press, ILPS 9081) - 1968, FLAC (tracks), lossless

в форуме Зарубежный рок (оцифровки), Размер: 1.04 ГБ, Здоровье: 0%

Anonymous

0
0|0

10
0

26 авг 2016, 19:17

Anonymous Перейти к последнему сообщению

В этой теме нет новых непрочитанных сообщений. Скачать торрент Проверен (Progressive,Classic,Stoner,Psychedelic Rock) [CD] Traffic - Traffic (Reissue 1995, Remastered, 24KT Gold CD) - 1968, WavPack (image+.cue), lossless

в форуме Progressive & Art-Rock, Размер: 287.52 МБ, Здоровье: 0%

Anonymous

0
0|0

4
0

30 авг 2016, 22:36

Anonymous Перейти к последнему сообщению

В этой теме нет новых непрочитанных сообщений. Скачать торрент Проверен (Progressive/Psychedelic Rock) Traffic Sound - Traffic Sound - 1970, FLAC (image+.cue) lossless

в форуме Progressive & Art-Rock, Размер: 189.35 МБ, Здоровье: 100%

Anonymous

0
2|1

16
0

30 авг 2016, 23:53

Anonymous Перейти к последнему сообщению

В этой теме нет новых непрочитанных сообщений. Скачать торрент Шоколад / Chocolat (2000) BDRip 720p

в форуме 720p | 1080p, Размер: 5.07 ГБ, Здоровье: 0%

Anonymous

0
0|0

15
0

15 мар 2014, 13:49

Anonymous Перейти к последнему сообщению



Сейчас этот форум просматривают: нет зарегистрированных пользователей и гости: 3


Вы не можете начинать темы
Вы не можете отвечать на сообщения
Вы не можете редактировать свои сообщения
Вы не можете удалять свои сообщения
Вы не можете добавлять вложения

Перейти:  

!ВНИМАНИЕ!
 Ресурс не предоставляет электронные версии произведений, а занимается лишь коллекционированием и каталогизацией ссылок, присылаемых и публикуемых на форуме нашими читателями. Если вы являетесь правообладателем какого-либо представленного материала и не желаете чтобы ссылка на него находилась в нашем каталоге, свяжитесь с нами и мы незамедлительно удалим её. Файлы для обмена на трекере предоставлены пользователями сайта, и администрация не несёт ответственности за их содержание. Просьба не заливать файлы, защищенные авторскими правами, а также файлы нелегального содержания!
cron