На всех торрентах на трекере установлена скидка на скачивание в размере 100 процентов(а).
 Возможность скачивания торрента НЕ зависит от ограничений при низком ратио, низком аплоаде, требуемом ратио или требуемом аплоаде.


Начать новую тему Ответить на тему
Статистика раздачи
Размер: 6.59 ГБ | Добавлен: 20 дек 2014, 00:50 | Скачали: 426
Сидеров: 206  [0 байт/сек]    Личеров: 56  [0 байт/сек]
Пред. тема | След. тема 

Автор
Сообщение

СообщениеДобавлено: 20 дек 2014, 00:50 

Название: Я – начало
Оригинальное название: I Origins
Год выхода: 2014
Жанр: Драма, фантастика
Режиссер: Майк Кэхилл / Mike Cahill
В ролях: Майкл Питт, Стивен Ян, Астрид Берже-Фрисби, Брит Марлинг, Дориен Маклоги, Чарльз В. Грэй, Джон Шиумо, Фараша Бэйлок, Ако, Кристофер Сантамария

О фильме:
Молодого и перспективного микробиолога повсюду преследует цифра "11". Он не упираясь следует за ней и она приводит его к молодой девушке в которую наш герой безумно влюбляется. Девушка открывает ему мир совсем в другом ракурсе и для него её глаза настоящее "зеркало души". Но девушка умирает. Он погружается в работу, вместе со своей помощницей, делает невероятное открытие, которое меняет понимания всего зарождения жизни людей и это открытие может изменить весь мир...
Страна: США
Продолжительность: 01:47:35
Перевод: Профессиональный (многоголосый закадровый) iTunes


Кодек: mkv
Качество: BDRip 720p
Видео: MPEG-4 AVC, 6695 Кбит/с, 1280x536, 23,976 fps
Звук:
Аудио: Rus, AC3, 384 kb/s (6 ch), 48 kHz
Аудио 2: Eng, DTS, 1510 kb/s (6 ch), 48 kHz
Субтитры: Rus, Ukr, Eng



Format : Matroska
Format version : Version 4 / Version 2
File size : 6.59 GiB
Duration : 1h 47mn
Overall bit rate : 8 763 Kbps
Movie name : Tonik
Encoded date : UTC 2014-12-19 01:51:12
Writing application : mkvmerge v7.1.0 ('Good Love') 64bit built on Jul 27 2014 13:06:55
Writing library : libebml v1.3.0 + libmatroska v1.4.1
DURATION : 01:46:01.111000000
NUMBER_OF_FRAMES : 1153
NUMBER_OF_BYTES : 37093
_STATISTICS_WRITING_APP : mkvmerge v7.1.0 ('Good Love') 64bit built on Jul 27 2014 13:06:55
_STATISTICS_WRITING_DATE_UTC : 2014-12-19 01:51:12
_STATISTICS_TAGS : BPS DURATION NUMBER_OF_FRAMES NUMBER_OF_BYTES

Video
ID : 1
Format : AVC
Format/Info : Advanced Video Codec
Format profile : High@L4.1
Format settings, CABAC : Yes
Format settings, ReFrames : 10 frames
Codec ID : V_MPEG4/ISO/AVC
Duration : 1h 47mn
Bit rate : 6 695 Kbps
Nominal bit rate : 7 053 Kbps
Width : 1 280 pixels
Height : 536 pixels
Display aspect ratio : 2.40:1
Frame rate mode : Constant
Frame rate : 23.976 fps
Color space : YUV
Chroma subsampling : 4:2:0
Bit depth : 8 bits
Scan type : Progressive
Bits/(Pixel*Frame) : 0.407
Stream size : 5.03 GiB (76%)
Writing library : x264 core 142 r2431 ac76440
Encoding settings : cabac=1 / ref=10 / deblock=1:-1:-1 / analyse=0x3:0x133 / me=hex / subme=9 / psy=1 / psy_rd=1.00:0.00 / mixed_ref=1 / me_range=16 / chroma_me=1 / trellis=2 / 8x8dct=1 / cqm=0 / deadzone=21,11 / fast_pskip=1 / chroma_qp_offset=-2 / threads=16 / lookahead_threads=4 / sliced_threads=0 / nr=0 / decimate=1 / interlaced=0 / bluray_compat=0 / constrained_intra=0 / bframes=10 / b_pyramid=2 / b_adapt=2 / b_bias=0 / direct=3 / weightb=1 / open_gop=0 / weightp=2 / keyint=240 / keyint_min=23 / scenecut=40 / intra_refresh=0 / rc_lookahead=60 / rc=abr / mbtree=1 / bitrate=7053 / ratetol=1.0 / qcomp=0.60 / qpmin=10 / qpmax=51 / qpstep=4 / vbv_maxrate=62500 / vbv_bufsize=78125 / nal_hrd=none / filler=0 / ip_ratio=1.40 / aq=1:1.00
Language : English
Default : Yes
Forced : No
DURATION : 01:47:34.782000000
NUMBER_OF_FRAMES : 154760
NUMBER_OF_BYTES : 5544164888
_STATISTICS_WRITING_APP : mkvmerge v7.1.0 ('Good Love') 64bit built on Jul 27 2014 13:06:55
_STATISTICS_WRITING_DATE_UTC : 2014-12-19 01:51:12
_STATISTICS_TAGS : BPS DURATION NUMBER_OF_FRAMES NUMBER_OF_BYTES

Audio #1
ID : 2
Format : AC-3
Format/Info : Audio Coding 3
Mode extension : CM (complete main)
Format settings, Endianness : Big
Codec ID : A_AC3
Duration : 1h 47mn
Bit rate mode : Constant
Bit rate : 384 Kbps
Channel(s) : 6 channels
Channel positions : Front: L C R, Side: L R, LFE
Sampling rate : 48.0 KHz
Bit depth : 16 bits
Compression mode : Lossy
Stream size : 296 MiB (4%)
Title : MVO, iTunes
Language : Russian
Default : Yes
Forced : No

Audio #2
ID : 3
Format : DTS
Format/Info : Digital Theater Systems
Format profile : ES
Mode : 16
Format settings, Endianness : Big
Codec ID : A_DTS
Duration : 1h 47mn
Bit rate mode : Constant
Bit rate : 1 509 Kbps
Channel(s) : 6 channels
Channel positions : Front: L C R, Side: L R, LFE
Sampling rate : 48.0 KHz
Bit depth : 24 bits
Compression mode : Lossy
Stream size : 1.13 GiB (17%)
Language : English
Default : No
Forced : No

Text #1
ID : 4
Format : UTF-8
Codec ID : S_TEXT/UTF8
Codec ID/Info : UTF-8 Plain Text
Language : Russian
Default : No
Forced : No

Text #2
ID : 5
Format : UTF-8
Codec ID : S_TEXT/UTF8
Codec ID/Info : UTF-8 Plain Text
Language : Ukrainian
Default : No
Forced : No

Text #3
ID : 6
Format : UTF-8
Codec ID : S_TEXT/UTF8
Codec ID/Info : UTF-8 Plain Text
Language : English
Default : No
Forced : No

Menu
00:00:00.000 : en:Chapter 01
00:02:40.000 : en:Chapter 02
00:05:32.000 : en:Chapter 03
00:07:23.000 : en:Chapter 04
00:12:34.000 : en:Chapter 05
00:13:51.000 : en:Chapter 06
00:16:42.000 : en:Chapter 07
00:18:59.000 : en:Chapter 08
00:21:31.000 : en:Chapter 09
00:25:35.000 : en:Chapter 10
00:29:36.000 : en:Chapter 11
00:32:49.000 : en:Chapter 12
00:36:23.000 : en:Chapter 13
00:42:27.000 : en:Chapter 14
00:46:35.000 : en:Chapter 15
00:50:48.000 : en:Chapter 16
00:54:13.000 : en:Chapter 17
00:58:22.000 : en:Chapter 18
01:02:22.000 : en:Chapter 19
01:05:21.000 : en:Chapter 20
01:07:45.000 : en:Chapter 21
01:12:48.000 : en:Chapter 22
01:16:27.000 : en:Chapter 23
01:18:35.000 : en:Chapter 24
01:21:14.000 : en:Chapter 25
01:23:55.000 : en:Chapter 26
01:26:01.000 : en:Chapter 27
01:27:47.000 : en:Chapter 28
01:32:39.000 : en:Chapter 29
01:37:33.000 : en:Chapter 30
01:38:57.000 : en:Chapter 31
01:42:17.000 : en:Chapter 32






Релиз от:
загрузка...
Правила, инструкции, FAQ!!!
Торрент  Добавлен [20 дек 2014, 00:50] Скачать торрент
Скачать торрент
[ Размер 17.13 КБ / Просмотров 6 ]

Статус
Проверен 
 
Размер  6.59 ГБ
Приватный: Нет (DHT включён)
.torrent скачан  426
Как залить торрент? | Как скачать Torrent? | Как смотреть и слушать онлайн?  


     Отправить личное сообщение
   
Страница 1 из 1
Показать сообщения за:  Поле сортировки  
Начать новую тему Ответить на тему

   Похожие торренты   Автор   Ответы   Просмотры   Последнее сообщение 
В этой теме нет новых непрочитанных сообщений. Скачать торрент Проверен Я – начало / I Origins (2014) WEB-DLRip | iTunes

в форуме Фантастика, Фэнтези, Размер: 1.45 ГБ, Здоровье: 100%

Гость

0
1|0

87
1

13 дек 2014, 13:56

Гость Перейти к последнему сообщению

В этой теме нет новых непрочитанных сообщений. Скачать торрент Проверен [iPad] Я – начало / I Origins (Майк Кэхилл / Mike Cahill ) [2014, США, Фантастика, драма, WEB-DLRip, SD (576p)] MVO + Original + sub (rus, eng)

в форуме Фильмы для iPod, iPhone, iPad, Размер: 1.88 ГБ, Здоровье: 100%

Гость

0
56|19

39
0

12 май 2015, 00:07

Гость Перейти к последнему сообщению

В этой теме нет новых непрочитанных сообщений. Геракл: Начало легенды / The Legend of Hercules (2014) BDRip 720p | Чистый звук

в форуме Новинки кино, Размер: 4.5 ГБ, Здоровье: 0%

Anonymous

0
0|0

205
4

06 апр 2014, 19:19

Anonymous Перейти к последнему сообщению

В этой теме нет новых непрочитанных сообщений. Скачать торрент Проверен Драконы: Гонки бесстрашных. Начало / Dragons: Dawn of the Dragon Racers (2014) BDRip 720p | D

в форуме Зарубежные мультфильмы (HD Video), Размер: 789.54 МБ, Здоровье: 100%

Anonymous

0
95|66

126
72

24 окт 2014, 21:44

Anonymous Перейти к последнему сообщению

В этой теме нет новых непрочитанных сообщений. Скачать торрент Проверен Близнецы / The Skeleton Twins (2014) BDRip 720p | iTunes

в форуме 720p | 1080p, Размер: 5.82 ГБ, Здоровье: 100%

Гость

0
149|49

48
432

24 янв 2015, 17:51

Гость Перейти к последнему сообщению



Сейчас этот форум просматривают: нет зарегистрированных пользователей и гости: 1


Вы не можете начинать темы
Вы не можете отвечать на сообщения
Вы не можете редактировать свои сообщения
Вы не можете удалять свои сообщения
Вы не можете добавлять вложения

Перейти:  

!ВНИМАНИЕ!
 Ресурс не предоставляет электронные версии произведений, а занимается лишь коллекционированием и каталогизацией ссылок, присылаемых и публикуемых на форуме нашими читателями. Если вы являетесь правообладателем какого-либо представленного материала и не желаете чтобы ссылка на него находилась в нашем каталоге, свяжитесь с нами и мы незамедлительно удалим её. Файлы для обмена на трекере предоставлены пользователями сайта, и администрация не несёт ответственности за их содержание. Просьба не заливать файлы, защищенные авторскими правами, а также файлы нелегального содержания!