На всех торрентах на трекере установлена скидка на скачивание в размере 100 процентов(а).
 Возможность скачивания торрента НЕ зависит от ограничений при низком ратио, низком аплоаде, требуемом ратио или требуемом аплоаде.


Начать новую тему Ответить на тему
Статистика раздачи
Размер: 7.39 ГБ | Добавлен: 19 дек 2014, 22:02 | Скачали: 484
Сидеров: 403  [0 байт/сек]    Личеров: 339  [0 байт/сек]
Пред. тема | След. тема 

Автор
Сообщение

СообщениеДобавлено: 19 дек 2014, 22:02 

Название: Последние часы
Оригинальное название: These Final Hours
Год выпуска: 2013
Жанр: фантастика, триллер, драма
Режиссер: Зак Хилдитч
В ролях: Сара Снук, Джессика Де Гау, Дэниэл Хеншэлл, Нэйтан Филлипс, Дэвид Филд, Ангури Райс, Кэтерин Бек, Линетт Каррен, Корум Элис
О фильме: Это последний день на земле. Через двенадцать часов глобальный катаклизм положит всему конец. Джеймс держит путь через город, погрузившийся в хаос, чтобы попасть на последнюю вечеринку. По пути он спасает жизнь маленькой девочки по имени Роуз, которая отчаянно ищет своего отца.

Выпущено: Австралия
Продолжительность: 01:26:30
Перевод: Любительский (одноголосый, закадровый) - RAIM | по переводу - Janetta
Файл
Качество: BDRip 1080p
Формат: MKV
Видео: MPEG4/AVC, 11.2 Мбит/сек, 1920х800 (2.40:1), 24.000 кадра/сек
Аудио 1: AC3, 6 каналов, 448 Кбит/сек | Русский
Аудио 2: AC3, 6 каналов, 640 Кбит/сек | Английский
Субтитры: Английские (Full, SDH)
Навигация по главам: Есть
Общее
Уникальный идентификатор : 245019712601880726046010701893135493453 (0xB85514847B567E4792C5D824307BE94D)
Полное имя : These Final Hours. (2013) BDRip 1080p.mkv
Формат : Matroska
Версия формата : Version 2
Размер файла : 7,39 Гбайт
Продолжительность : 1 ч. 26 м.
Общий поток : 12,2 Мбит/сек
Название фильма : These Final Hours. 2013
Дата кодирования : UTC 2014-12-19 15:50:34
Программа кодирования : mkvmerge v5.8.0 ('No Sleep / Pillow') built on Sep 2 2012 15:37:04
Библиотека кодирования : libebml v1.2.3 + libmatroska v1.3.0
Видео
Идентификатор : 1
Формат : AVC
Формат/Информация : Advanced Video Codec
Профиль формата : High@L4.1
Параметр CABAC формата : Да
Параметр ReFrames формата : 5 кадров
Идентификатор кодека : V_MPEG4/ISO/AVC
Продолжительность : 1 ч. 26 м.
Битрейт : 11,2 Мбит/сек
Ширина : 1920 пикселей
Высота : 800 пикселей
Соотношение сторон : 2,40:1
Режим частоты кадров : Постоянный
Частота кадров : 24,000 кадра/сек
Цветовое пространство : YUV
Субдискретизация насыщенности : 4:2:0
Битовая глубина : 8 бит
Тип развёртки : Прогрессивная
Бит/(Пиксели*Кадры) : 0.303
Размер потока : 6,59 Гбайт (89%)
Заголовок : CADAVER
Библиотека кодирования : x264 core 142 r2491 24e4fed
Настройки программы : cabac=1 / ref=5 / deblock=1:-3:-3 / analyse=0x3:0x113 / me=umh / subme=11 / psy=1 / psy_rd=1.05:0.00 / mixed_ref=1 / me_range=36 / chroma_me=1 / trellis=2 / 8x8dct=1 / cqm=0 / deadzone=6,6 / fast_pskip=0 / chroma_qp_offset=-2 / threads=12 / lookahead_threads=3 / sliced_threads=0 / nr=0 / decimate=0 / interlaced=0 / bluray_compat=0 / constrained_intra=0 / bframes=10 / b_pyramid=2 / b_adapt=2 / b_bias=0 / direct=3 / weightb=1 / open_gop=0 / weightp=2 / keyint=250 / keyint_min=24 / scenecut=40 / intra_refresh=0 / rc=2pass / mbtree=0 / bitrate=11157 / ratetol=1.0 / qcomp=0.80 / qpmin=0 / qpmax=69 / qpstep=4 / cplxblur=20.0 / qblur=0.5 / ip_ratio=1.10 / pb_ratio=1.10 / aq=1:0.60
Язык : English
Default : Да
Forced : Нет
Аудио #1
Идентификатор : 2
Формат : AC-3
Формат/Информация : Audio Coding 3
Расширение режима : CM (complete main)
Параметр Endianness формата : Big
Идентификатор кодека : A_AC3
Продолжительность : 1 ч. 26 м.
Вид битрейта : Постоянный
Битрейт : 448 Кбит/сек
Каналы : 6 каналов
Расположение каналов : Front: L C R, Side: L R, LFE
Частота : 48,0 КГц
Битовая глубина : 16 бит
Метод сжатия : С потерями
Размер потока : 277 Мбайт (4%)
Заголовок : L1 | RAIM
Язык : Russian
Default : Да
Forced : Нет
Аудио #2
Идентификатор : 3
Формат : AC-3
Формат/Информация : Audio Coding 3
Расширение режима : CM (complete main)
Параметр Endianness формата : Big
Идентификатор кодека : A_AC3
Продолжительность : 1 ч. 26 м.
Вид битрейта : Постоянный
Битрейт : 640 Кбит/сек
Каналы : 6 каналов
Расположение каналов : Front: L C R, Side: L R, LFE
Частота : 48,0 КГц
Битовая глубина : 16 бит
Метод сжатия : С потерями
Размер потока : 396 Мбайт (5%)
Заголовок : Original
Язык : English
Default : Нет
Forced : Нет
Текст #1
Идентификатор : 4
Формат : UTF-8
Идентификатор кодека : S_TEXT/UTF8
Идентификатор кодека/Информация : UTF-8 Plain Text
Заголовок : Full
Язык : English
Default : Нет
Forced : Нет
Текст #2
Идентификатор : 5
Формат : UTF-8
Идентификатор кодека : S_TEXT/UTF8
Идентификатор кодека/Информация : UTF-8 Plain Text
Заголовок : SDH
Язык : English
Default : Нет
Forced : Нет
Меню
00:00:00.000 : en:00:00:00.000
00:05:59.750 : en:00:05:59.750
00:12:35.208 : en:00:12:35.208
00:17:00.250 : en:00:17:00.250
00:22:03.917 : en:00:22:03.917
00:28:13.000 : en:00:28:13.000
00:32:30.250 : en:00:32:30.250
00:40:15.167 : en:00:40:15.167
00:43:35.625 : en:00:43:35.625
00:51:35.292 : en:00:51:35.292
00:54:34.500 : en:00:54:34.500
01:00:24.125 : en:01:00:24.125
01:04:39.667 : en:01:04:39.667
01:10:05.542 : en:01:10:05.542
01:13:56.750 : en:01:13:56.750
01:20:42.417 : en:01:20:42.417


Релиз от:
загрузка...
Правила, инструкции, FAQ!!!
Торрент  Добавлен [19 дек 2014, 22:02] Скачать торрент
Скачать торрент
[ Размер 19.19 КБ / Просмотров 6 ]

Статус
Проверен 
 
Размер  7.39 ГБ
Приватный: Нет (DHT включён)
.torrent скачан  484
Как залить торрент? | Как скачать Torrent? | Как смотреть и слушать онлайн?  


     Отправить личное сообщение
   
Страница 1 из 1
Показать сообщения за:  Поле сортировки  
Начать новую тему Ответить на тему

   Похожие торренты   Автор   Ответы   Просмотры   Последнее сообщение 
В этой теме нет новых непрочитанных сообщений. Скачать торрент Проверен Последние часы / These Final Hours (2013) HDRip | L1

в форуме Фантастика, Фэнтези, Размер: 1.45 ГБ, Здоровье: 100%

Anonymous

0
1059|43

97
153

02 янв 2015, 15:38

Anonymous Перейти к последнему сообщению

В этой теме нет новых непрочитанных сообщений. Скачать торрент Проверен Последние дни на Марсе / The Last Days on Mars (2013) BDRip 1080p | P

в форуме 720p | 1080p, Размер: 5.44 ГБ, Здоровье: 100%

Anonymous

0
39|4

33
407

27 сен 2014, 22:06

Anonymous Перейти к последнему сообщению

В этой теме нет новых непрочитанных сообщений. Скачать торрент Проверен Хартман Т. - Последние часы древнего солнечного света (часть 1) [2000, PDF, RUS]

в форуме Популярная психология, Размер: 702.87 КБ, Здоровье: 0%

Anonymous

0
0|0

11
0

09 сен 2016, 21:45

Anonymous Перейти к последнему сообщению

В этой теме нет новых непрочитанных сообщений. Скачать торрент Проверен Последние девушки / The Final Girls (2015) WEB-DLRip | L1

в форуме Ужасы, Размер: 695.6 МБ, Здоровье: 100%

Гость

0
17|0

331
5

17 окт 2015, 18:37

Гость Перейти к последнему сообщению

В этой теме нет новых непрочитанных сообщений. Скачать торрент Последние дни на Марсе / The Last Days on Mars (2013) BDRip-AVC | L1

в форуме Фантастика, Фэнтези, Размер: 1.6 ГБ, Здоровье: ???%

Anonymous

1
0|1

46
0

13 апр 2014, 16:12

vromi Перейти к последнему сообщению



Сейчас этот форум просматривают: нет зарегистрированных пользователей и гости: 1


Вы не можете начинать темы
Вы не можете отвечать на сообщения
Вы не можете редактировать свои сообщения
Вы не можете удалять свои сообщения
Вы не можете добавлять вложения

Перейти:  

!ВНИМАНИЕ!
 Ресурс не предоставляет электронные версии произведений, а занимается лишь коллекционированием и каталогизацией ссылок, присылаемых и публикуемых на форуме нашими читателями. Если вы являетесь правообладателем какого-либо представленного материала и не желаете чтобы ссылка на него находилась в нашем каталоге, свяжитесь с нами и мы незамедлительно удалим её. Файлы для обмена на трекере предоставлены пользователями сайта, и администрация не несёт ответственности за их содержание. Просьба не заливать файлы, защищенные авторскими правами, а также файлы нелегального содержания!