На всех торрентах на трекере установлена скидка на скачивание в размере 100 процентов(а).
 Возможность скачивания торрента НЕ зависит от ограничений при низком ратио, низком аплоаде, требуемом ратио или требуемом аплоаде.


Начать новую тему Ответить на тему
Статистика раздачи
Размер: 7.76 ГБ | Добавлен: 19 дек 2014, 00:35 | Скачали: 80
Сидеров: 22  [0 байт/сек]    Личеров: 0  [0 байт/сек]
Пред. тема | След. тема 

Автор
Сообщение

СообщениеДобавлено: 19 дек 2014, 00:35 

    Русское название: Сити-Айленд
    Оригинальное название: City Island
    Год выхода: 2009
    Жанр: Комедия, драма
    Режиссер: Рэймонд Де Фелитта
    Выпущено: США
    Продолжительность: 01:43:48
    Перевод: Дублированный
    В ролях: Энди Гарсиа, Джулианна Маргулис, Стивен Стрейт, Доминик Гарсиа-Лоридо, Эзра Миллер, Эмили Мортимер, Алан Аркин, Джи Янг Хань, Шарон Анджела, Джордж Алой, Вернон Кэмпбелл, Лора Кио


Сюжет фильма
    Безумная семейка Риццо обитает на тихом и спокойном островке в Бронксе. В ней, как и во всякой другой, есть свои «скелеты в шкафу». И когда один из этих «скелетов» показывается на свет, секреты раскрываются, а жизнь всех членов семьи резко меняется. Только вот в какую сторону?
    Трогательная и остроумная комедия о секретах прошлого, запутанных во лжи настоящего. В этой жизни нет идеальных людей, по крайней мере, из тех, кого ты любишь.


Файл
    Качество: BDRip 1080p (исходник Blu-ray Disc)
    Видео: 1920x1080, 9610 Кбит/сек, 23,976 кадр/сек, AVC, x264, High@L4.1, 16:9, 0.193 Бит/[Пиксели*Кадры]
    Аудио 1: AC-3, 448 Кбит/сек, 6 канала(ов), 48,0 КГц - Дублированный / Русский
    Аудио 2: AC-3, 640 Кбит/сек, 6 канала(ов), 48,0 КГц - Оригинал / Английский
    Субтитры: Русские | Полные, Английские | Полные
    Чаптеры (Главы): Есть



Автор Рипа:


Format : Matroska
Format version : Version 2
File size : 7.76 GiB
Duration : 1h 43mn
Overall bit rate : 10.7 Mbps
Movie name : Сити-Айленд.(2009).BDRip.1080p.[envy]
Encoded date : UTC 2014-05-12 07:22:56
Writing application : mkvmerge v5.8.0 ('No Sleep / Pillow') built on Sep 2 2012 15:37:04
Writing library : libebml v1.2.3 + libmatroska v1.3.0

Video
ID : 1
Format : AVC
Format/Info : Advanced Video Codec
Format profile : High@L4.1
Format settings, CABAC : Yes
Format settings, ReFrames : 4 frames
Codec ID : V_MPEG4/ISO/AVC
Duration : 1h 43mn
Bit rate : 9 610 Kbps
Width : 1 920 pixels
Height : 1 080 pixels
Display aspect ratio : 16:9
Frame rate mode : Constant
Frame rate : 23.976 fps
Color space : YUV
Chroma subsampling : 4:2:0
Bit depth : 8 bits
Scan type : Progressive
Bits/(Pixel*Frame) : 0.193
Stream size : 6.81 GiB (88%)
Title : Сити-Айленд.(2009).BDRip.1080p.[envy]
Writing library : x264 core 142 r2409 d6b4e63
Encoding settings : cabac=1 / ref=4 / deblock=1:-3:-2 / analyse=0x3:0x133 / me=umh / subme=11 / psy=1 / psy_rd=1.00:0.00 / mixed_ref=1 / me_range=32 / chroma_me=1 / trellis=2 / 8x8dct=1 / cqm=0 / deadzone=21,11 / fast_pskip=0 / chroma_qp_offset=-2 / threads=12 / lookahead_threads=1 / sliced_threads=0 / nr=0 / decimate=1 / interlaced=0 / bluray_compat=0 / constrained_intra=0 / bframes=5 / b_pyramid=2 / b_adapt=2 / b_bias=0 / direct=3 / weightb=1 / open_gop=0 / weightp=2 / keyint=240 / keyint_min=23 / scenecut=40 / intra_refresh=0 / rc=2pass / mbtree=0 / bitrate=9610 / ratetol=2.0 / qcomp=0.60 / qpmin=0 / qpmax=69 / qpstep=4 / cplxblur=20.0 / qblur=0.5 / ip_ratio=1.40 / pb_ratio=1.30 / aq=2:0.90
Language : English
Default : Yes
Forced : No

Audio #1
ID : 2
Format : AC-3
Format/Info : Audio Coding 3
Mode extension : CM (complete main)
Format settings, Endianness : Big
Codec ID : A_AC3
Duration : 1h 43mn
Bit rate mode : Constant
Bit rate : 448 Kbps
Channel count : 6 channels
Channel positions : Front: L C R, Side: L R, LFE
Sampling rate : 48.0 KHz
Bit depth : 16 bits
Compression mode : Lossy
Stream size : 333 MiB (4%)
Title : Dub
Default : Yes
Forced : No

Audio #2
ID : 3
Format : AC-3
Format/Info : Audio Coding 3
Mode extension : CM (complete main)
Format settings, Endianness : Big
Codec ID : A_AC3
Duration : 1h 43mn
Bit rate mode : Constant
Bit rate : 640 Kbps
Channel count : 6 channels
Channel positions : Front: L C R, Side: L R, LFE
Sampling rate : 48.0 KHz
Bit depth : 16 bits
Compression mode : Lossy
Stream size : 475 MiB (6%)
Title : Eng
Language : English
Default : No
Forced : No

Text #1
ID : 4
Format : UTF-8
Codec ID : S_TEXT/UTF8
Codec ID/Info : UTF-8 Plain Text
Title : full
Language : English
Default : No
Forced : No

Text #2
ID : 5
Format : UTF-8
Codec ID : S_TEXT/UTF8
Codec ID/Info : UTF-8 Plain Text
Title : full
Language : English
Default : No
Forced : No

Menu
00:00:00.000 : :Chapter 01
00:05:02.510 : :Chapter 02
00:13:38.025 : :Chapter 03
00:19:31.420 : :Chapter 04
00:28:54.232 : :Chapter 05
00:43:46.707 : :Chapter 06
00:49:31.301 : :Chapter 07
01:00:21.701 : :Chapter 08
01:10:39.360 : :Chapter 09
01:20:00.337 : :Chapter 10
01:27:13.353 : :Chapter 11
01:38:58.724 : :Chapter 12

загрузка...
Правила, инструкции, FAQ!!!
Торрент  Добавлен [19 дек 2014, 00:35] Скачать торрент
Скачать торрент
[ Размер 39.29 КБ / Просмотров 2 ]

Статус
Проверен 
 
Размер  7.76 ГБ
Приватный: Нет (DHT включён)
.torrent скачан  80
Как залить торрент? | Как скачать Torrent? | Как смотреть и слушать онлайн?  


     Отправить личное сообщение
   
Страница 1 из 1
Показать сообщения за:  Поле сортировки  
Начать новую тему Ответить на тему

   Похожие торренты   Автор   Ответы   Просмотры   Последнее сообщение 
В этой теме нет новых непрочитанных сообщений. Скачать торрент Проверен Сити-Айленд / City Island (2009) BDRip-AVC

в форуме Драмы, Мелодрамы, Размер: 1.45 ГБ, Здоровье: 100%

Гость

0
25|4

47
215

19 дек 2014, 00:26

Гость Перейти к последнему сообщению

В этой теме нет новых непрочитанных сообщений. Скачать торрент Проверен Потерянный город / The Lost City (2005) BDRip 1080p | D, P

в форуме 720p | 1080p, Размер: 12.94 ГБ, Здоровье: 62%

Гость

0
5|8

204
4

09 авг 2015, 22:49

Гость Перейти к последнему сообщению

В этой теме нет новых непрочитанных сообщений. Скачать торрент Проверен Темный город / Dark City (1998) BDRip 1080p | Режиссерская версия / Director's Cut

в форуме 720p | 1080p, Размер: 5.77 ГБ, Здоровье: 100%

Гость

0
74|11

42
283

19 янв 2015, 21:16

Гость Перейти к последнему сообщению

В этой теме нет новых непрочитанных сообщений. Скачать торрент Проверен Heaven and Hell - Radio City Music Hall Live! [2011, Heavy Metal, BDRip 1080p]

в форуме Концерты (HD-Video), Размер: 12.18 ГБ, Здоровье: 81%

Anonymous

0
9|11

45
2

26 апр 2015, 22:45

Anonymous Перейти к последнему сообщению

В этой теме нет новых непрочитанных сообщений. Скачать торрент Проверен Linkin Park - New Divide (2009) BDRip 1080p (Джо Хан) [2009, Alternative rock, BDRip]

в форуме Концерты (HD-Video), Размер: 451.32 МБ, Здоровье: 100%

Anonymous

0
3|1

1
0

23 окт 2016, 11:54

Anonymous Перейти к последнему сообщению



Сейчас этот форум просматривают: нет зарегистрированных пользователей и гости: 3


Вы не можете начинать темы
Вы не можете отвечать на сообщения
Вы не можете редактировать свои сообщения
Вы не можете удалять свои сообщения
Вы не можете добавлять вложения

Перейти:  

!ВНИМАНИЕ!
 Ресурс не предоставляет электронные версии произведений, а занимается лишь коллекционированием и каталогизацией ссылок, присылаемых и публикуемых на форуме нашими читателями. Если вы являетесь правообладателем какого-либо представленного материала и не желаете чтобы ссылка на него находилась в нашем каталоге, свяжитесь с нами и мы незамедлительно удалим её. Файлы для обмена на трекере предоставлены пользователями сайта, и администрация не несёт ответственности за их содержание. Просьба не заливать файлы, защищенные авторскими правами, а также файлы нелегального содержания!