На всех торрентах на трекере установлена скидка на скачивание в размере 100 процентов(а).
 Возможность скачивания торрента НЕ зависит от ограничений при низком ратио, низком аплоаде, требуемом ратио или требуемом аплоаде.


Начать новую тему Ответить на тему
Статистика раздачи
Размер: 12.11 ГБ | Добавлен: 18 дек 2014, 23:42 | Скачали: 53
Сидеров: 11  [0 байт/сек]    Личеров: 3  [0 байт/сек]
Пред. тема | След. тема 

Автор
Сообщение

СообщениеДобавлено: 18 дек 2014, 23:42 

Название: Наемные убийцы
Оригинальное название: Assassins
Год выхода: 1995
Жанр: боевик, триллер, криминал
Режиссер: Ричард Доннер
В ролях: Сильвестр Сталлоне, Антонио Бандерас, Джулианна Мур, Анатолий Давыдов, Мьюз Уотсон, Стив Кэхэн, Келли Роуэн, Рид Даймонд, Кай Вулфф, Керри Скалски, Джеймс Дуглас Хэскинс, Стивен Лиска

О фильме: Роберт Рэт - лучший киллер в округе, но кодекс чести и чувство долга, что некогда составляли часть его смертельной карьеры, исчезли. Мир, возникший после Холодной войны, переполнен «отморозками». Рэт хочет «завязать».
Другой киллер, Мигель Бэйн, амбициозный молодой человек - напротив желает стать первым в своем деле, и знает, как это сделать: уничтожить Рэта. Действие разворачивается стремительно и непредсказуемо, когда Сильвестр Сталлоне в роли Рэта и Антонио Бандерас в роли Бэйна защищают свою профессиональную честь наемных убийц.
Джулианна Мур играет хитрого хакера, затянутого в жестокую схватку киллерского дуэта.
Страна: США, Франция
Продолжительность: 02:12:44


Кодек: MPEG4-AVC
Качество: BDRip 1080p
Видео: 7000 kb/s, 1920x1080, 23.976 fps
Audio#1: DTS, 755 kb/s, 48 kHz (6 Ch) - Дублированный (R5)
Audio#2: AC3, 192 kb/s, 48 kHz (2 Ch) - Профессиональный двухголосый закадровый (НТВ)
Audio#3: AC3, 384 kb/s, 48 kHz (6 Ch) - Профессиональный одноголосый закадровый (диктор CDV)
Audio#4: DTS, 1510 kb/s, 48 kHz (6 Ch) - Авторский (Живов)
Audio#5: DTS, 1510 kb/s, 48 kHz (6 Ch) - Авторский (Гаврилов)
Audio#6: AC3, 192 kb/s, 48 kHz (2 Ch) - Авторский (Визгунов)
Audio#7: DTS, 1510 kb/s, 48 kHz (6 Ch) - Оригинал (английский)
Субтитры: Русские, Английские
Format : Matroska
File size : 12.1 GiB
Duration : 2h 12mn
Overall bit rate : 13.0 Mbps
Encoded date : UTC 2014-01-01 15:59:14
Writing application : mkvmerge v6.4.1 ('Omega Point') built on Sep 16 2013 22:05:10
Writing library : libebml v1.3.0 + libmatroska v1.4.1

Video
ID : 1
Format : AVC
Format/Info : Advanced Video Codec
Format profile : High@L4.1
Format settings, CABAC : Yes
Format settings, ReFrames : 4 frames
Codec ID : V_MPEG4/ISO/AVC
Duration : 2h 12mn
Bit rate : 6 999 Kbps
Width : 1 920 pixels
Height : 1 080 pixels
Display aspect ratio : 16:9
Frame rate : 23.976 fps
Original frame rate : 24.000 fps
Color space : YUV
Chroma subsampling : 4:2:0
Bit depth : 8 bits
Scan type : Progressive
Bits/(Pixel*Frame) : 0.141
Stream size : 6.25 GiB (52%)
Writing library : x264 core 138 r2358 9e941d1
Encoding settings : cabac=1 / ref=4 / deblock=1:0:0 / analyse=0x3:0x133 / me=tesa / subme=11 / psy=1 / psy_rd=1.00:0.15 / mixed_ref=1 / me_range=24 / chroma_me=1 / trellis=2 / 8x8dct=1 / cqm=0 / deadzone=21,11 / fast_pskip=0 / chroma_qp_offset=-3 / threads=12 / lookahead_threads=1 / sliced_threads=0 / nr=100 / decimate=1 / interlaced=0 / bluray_compat=0 / constrained_intra=0 / bframes=5 / b_pyramid=2 / b_adapt=2 / b_bias=0 / direct=3 / weightb=1 / open_gop=0 / weightp=2 / keyint=230 / keyint_min=22 / scenecut=40 / intra_refresh=0 / rc_lookahead=60 / rc=2pass / mbtree=1 / bitrate=6999 / ratetol=1.0 / qcomp=0.60 / qpmin=0 / qpmax=69 / qpstep=4 / cplxblur=20.0 / qblur=0.5 / vbv_maxrate=62500 / vbv_bufsize=78125 / nal_hrd=none / ip_ratio=1.40 / aq=1:1.00
Language : English

Audio #1
ID : 2
Format : DTS
Format/Info : Digital Theater Systems
Codec ID : A_DTS
Duration : 2h 12mn
Bit rate mode : Constant
Bit rate : 755 Kbps
Channel(s) : 6 channels
Channel positions : Front: L C R, Side: L R, LFE
Sampling rate : 48.0 KHz
Bit depth : 24 bits
Compression mode : Lossy
Stream size : 717 MiB (6%)
Title : Дублированный, R5
Language : Russian

Audio #2
ID : 3
Format : AC-3
Format/Info : Audio Coding 3
Mode extension : CM (complete main)
Codec ID : A_AC3
Duration : 2h 12mn
Bit rate mode : Constant
Bit rate : 192 Kbps
Channel(s) : 2 channels
Channel positions : Front: L R
Sampling rate : 48.0 KHz
Bit depth : 16 bits
Compression mode : Lossy
Stream size : 182 MiB (1%)
Title : Двухголосый, НТВ
Language : Russian

Audio #3
ID : 4
Format : AC-3
Format/Info : Audio Coding 3
Mode extension : CM (complete main)
Codec ID : A_AC3
Duration : 2h 12mn
Bit rate mode : Constant
Bit rate : 384 Kbps
Channel(s) : 6 channels
Channel positions : Front: L C R, Side: L R, LFE
Sampling rate : 48.0 KHz
Bit depth : 16 bits
Compression mode : Lossy
Stream size : 365 MiB (3%)
Title : Одноголосый, CDV
Language : Russian

Audio #4
ID : 5
Format : DTS
Format/Info : Digital Theater Systems
Codec ID : A_DTS
Duration : 2h 12mn
Bit rate mode : Constant
Bit rate : 1 510 Kbps
Channel(s) : 6 channels
Channel positions : Front: L C R, Side: L R, LFE
Sampling rate : 48.0 KHz
Bit depth : 24 bits
Compression mode : Lossy
Stream size : 1.40 GiB (12%)
Title : Авторский, Живов
Language : Russian

Audio #5
ID : 6
Format : DTS
Format/Info : Digital Theater Systems
Codec ID : A_DTS
Duration : 2h 12mn
Bit rate mode : Constant
Bit rate : 1 510 Kbps
Channel(s) : 6 channels
Channel positions : Front: L C R, Side: L R, LFE
Sampling rate : 48.0 KHz
Bit depth : 24 bits
Compression mode : Lossy
Stream size : 1.40 GiB (12%)
Title : Авторский, Гаврилов
Language : Russian

Audio #6
ID : 7
Format : AC-3
Format/Info : Audio Coding 3
Mode extension : CM (complete main)
Codec ID : A_AC3
Duration : 2h 12mn
Bit rate mode : Constant
Bit rate : 192 Kbps
Channel(s) : 2 channels
Channel positions : Front: L R
Sampling rate : 48.0 KHz
Bit depth : 16 bits
Compression mode : Lossy
Stream size : 182 MiB (1%)
Title : Авторский, Визгунов
Language : Russian

Audio #7
ID : 8
Format : DTS
Format/Info : Digital Theater Systems
Codec ID : A_DTS
Duration : 2h 12mn
Bit rate mode : Constant
Bit rate : 1 510 Kbps
Channel(s) : 6 channels
Channel positions : Front: L C R, Side: L R, LFE
Sampling rate : 48.0 KHz
Bit depth : 24 bits
Compression mode : Lossy
Stream size : 1.40 GiB (12%)
Title : Оригинал
Language : English

Text #1
ID : 9
Format : PGS
Muxing mode : zlib
Codec ID : S_HDMV/PGS
Codec ID/Info : The same subtitle format used on BDs/HD-DVDs
Title : Русские
Language : Russian

Text #2
ID : 10
Format : PGS
Muxing mode : zlib
Codec ID : S_HDMV/PGS
Codec ID/Info : The same subtitle format used on BDs/HD-DVDs
Title : Английские
Language : English

Menu
00:00:00.000 : en:00:00:00.000
00:05:35.293 : en:00:05:35.293
00:10:00.933 : en:00:10:00.933
00:14:44.466 : en:00:14:44.466
00:17:39.099 : en:00:17:39.099
00:19:01.640 : en:00:19:01.640
00:24:35.015 : en:00:24:35.015
00:30:03.719 : en:00:30:03.719
00:31:34.183 : en:00:31:34.183
00:34:57.804 : en:00:34:57.804
00:36:47.414 : en:00:36:47.414
00:37:56.773 : en:00:37:56.773
00:44:13.442 : en:00:44:13.442
00:48:12.472 : en:00:48:12.472
00:55:02.215 : en:00:55:02.215
00:59:54.925 : en:00:59:54.925
01:03:05.699 : en:01:03:05.699
01:06:50.505 : en:01:06:50.505
01:08:38.448 : en:01:08:38.448
01:12:37.270 : en:01:12:37.270
01:17:07.331 : en:01:17:07.331
01:20:52.555 : en:01:20:52.555
01:22:00.498 : en:01:22:00.498
01:27:24.280 : en:01:27:24.280
01:31:34.988 : en:01:31:34.988
01:35:18.003 : en:01:35:18.003
01:41:39.801 : en:01:41:39.801
01:42:59.840 : en:01:42:59.840
01:46:12.115 : en:01:46:12.115
01:47:33.529 : en:01:47:33.529
01:52:24.195 : en:01:52:24.195
01:55:42.601 : en:01:55:42.601
01:57:09.773 : en:01:57:09.773
01:59:17.984 : en:01:59:17.984
02:01:53.640 : en:02:01:53.640
02:03:05.712 : en:02:03:05.712
02:06:34.878 : en:02:06:34.878

загрузка...
Правила, инструкции, FAQ!!!
Торрент  Добавлен [18 дек 2014, 23:42] Скачать торрент
Скачать торрент
[ Размер 61.04 КБ / Просмотров 10 ]

Статус
Проверен 
 
Размер  12.11 ГБ
Приватный: Нет (DHT включён)
.torrent скачан  53
Как залить торрент? | Как скачать Torrent? | Как смотреть и слушать онлайн?  


     Отправить личное сообщение
   
Страница 1 из 1
Показать сообщения за:  Поле сортировки  
Начать новую тему Ответить на тему

   Похожие торренты   Автор   Ответы   Просмотры   Последнее сообщение 
В этой теме нет новых непрочитанных сообщений. Скачать торрент Проверен Наемные убийцы / Assassins (1995) HDRip | D

в форуме Боевики, Размер: 795.33 МБ, Здоровье: 100%

Гость

0
44|1

57
795

18 дек 2014, 23:39

Гость Перейти к последнему сообщению

В этой теме нет новых непрочитанных сообщений. Скачать торрент Проверен Убийцы / Killers (2014) BDRip 1080p

в форуме 720p | 1080p, Размер: 10.89 ГБ, Здоровье: 100%

Гость

0
94|4

77
10

18 апр 2015, 22:57

Гость Перейти к последнему сообщению

В этой теме нет новых непрочитанных сообщений. Скачать торрент Проверен Уличный боец: Кулак убийцы / Street Fighter: Assassin's Fist (2014) BDRip 1080p | А

в форуме 720p | 1080p, Размер: 12.03 ГБ, Здоровье: 1%

Anonymous

0
2|113

56
1

06 сен 2014, 21:53

Anonymous Перейти к последнему сообщению

В этой теме нет новых непрочитанных сообщений. Скачать торрент Проверен Хакеры / Hackers (1995) BDRip 1080p

в форуме 720p | 1080p, Размер: 9.78 ГБ, Здоровье: 100%

Гость

0
45|43

57
35

16 авг 2015, 19:15

Гость Перейти к последнему сообщению

В этой теме нет новых непрочитанных сообщений. Скачать торрент Схватка / Heat (1995) BDRip 1080p

в форуме 720p | 1080p, Размер: 11.55 ГБ, Здоровье: 100%

Anonymous

0
28|3

23
2

29 янв 2014, 20:10

Anonymous Перейти к последнему сообщению



Сейчас этот форум просматривают: нет зарегистрированных пользователей и гости: 1


Вы не можете начинать темы
Вы не можете отвечать на сообщения
Вы не можете редактировать свои сообщения
Вы не можете удалять свои сообщения
Вы не можете добавлять вложения

Перейти:  

!ВНИМАНИЕ!
 Ресурс не предоставляет электронные версии произведений, а занимается лишь коллекционированием и каталогизацией ссылок, присылаемых и публикуемых на форуме нашими читателями. Если вы являетесь правообладателем какого-либо представленного материала и не желаете чтобы ссылка на него находилась в нашем каталоге, свяжитесь с нами и мы незамедлительно удалим её. Файлы для обмена на трекере предоставлены пользователями сайта, и администрация не несёт ответственности за их содержание. Просьба не заливать файлы, защищенные авторскими правами, а также файлы нелегального содержания!