На всех торрентах на трекере установлена скидка на скачивание в размере 100 процентов(а).
 Возможность скачивания торрента НЕ зависит от ограничений при низком ратио, низком аплоаде, требуемом ратио или требуемом аплоаде.


Начать новую тему Ответить на тему
Статистика раздачи
Размер: 7.99 ГБ | Добавлен: 18 дек 2014, 23:34 | Скачали: 92
Сидеров: 15  [0 байт/сек]    Личеров: 3  [0 байт/сек]
Пред. тема | След. тема 

Автор
Сообщение

СообщениеДобавлено: 18 дек 2014, 23:34 

Выпущено: США, Франция, Великобритания, Австралия / Universal Pictures
Жанр: боевик, криминал, приключения, вестерн, биография, история
Год выпуска: 2003
Продолжительность: 01:49:53


Перевод: Профессиональный (многоголосый) [Лицензия]
Cубтитры: русские, английские (SDH)


Режиссер: Грегор Джордан
В ролях: Хит Леджер, Орландо Блум, Джеффри Раш, Наоми Уоттс, Джоэл Эдгертон, Лоуренс Кинлан, Фил Барантини, Керри Кондон, Крис МакКвейд, Эмили Браунинг


О фильме: Выходец из бедной семьи ирландских эмигрантов, сосланных в Австралию, Келли испытал на своей шкуре несправедливость колониальных властей и жесткость полицейских. Сколотив банду, куда вошли его родной брат Дэн и двое друзей — Джо и Стив, Келли принялся грабить банки в штате и быстро стал героем народных масс. Однажды они три дня держали в страхе целый городок. За поимку Неда Келли была назначена награда в 8 тысяч фунтов, но разбойникам постоянно удавалось скрыться...





Формат: MKV (x264)
Качество: ВDRip 1080р [SHUNPO]
Видео: 8450 kb/s, 1920x816, 2.35:1
Аудио #1: AC3, 448 kb/s (6 ch) [Проф. многоголосый, R5]
Аудио #2: DTS, 1536 kb/s (6 ch) [Оригинал]
● Премьера картины в Австралии состоялась всего в двух кварталах от того места, где Нед был повешен.
Код:
Формат                                   : Matroska
Версия формата                           : Version 2
Размер файла                             : 7,99 Гбайт
Продолжительность                        : 1 ч. 49 м.
Общий поток                              : 10,4 Мбит/сек
Дата кодирования                         : UTC 2012-04-06 12:31:47
Программа кодирования                    : mkvmerge v5.4.0 ('Piper') built on Mar 10 2012 13:34:39
Библиотека кодирования                   : libebml v1.2.3 + libmatroska v1.3.0

Видео
Идентификатор                            : 1
Формат                                   : AVC
Формат/Информация                        : Advanced Video Codec
Профиль формата                          : High@L4.1
Параметр CABAC формата                   : Да
Параметр ReFrames формата                : 5 кадров
Идентификатор кодека                     : V_MPEG4/ISO/AVC
Продолжительность                        : 1 ч. 49 м.
Битрейт                                  : 8450 Кбит/сек
Ширина                                   : 1920 пикселей
Высота                                   : 816 пикселей
Соотношение сторон                       : 2,35:1
Частота кадров                           : 23,976 кадра/сек
Цветовое пространство                    : YUV
Субдискретизация насыщенности            : 4:2:0
Битовая глубина                          : 8 бит
Тип развёртки                            : Прогрессивная
Бит/(Пиксели*Кадры)                      : 0.225
Размер потока                            : 6,33 Гбайт (79%)
Библиотека кодирования                   : x264 core 120 r2120 0c7dab9
Настройки программы                      : cabac=1 / ref=5 / deblock=1:0:0 / analyse=0x3:0x133 / me=umh / subme=7 / psy=1 /
psy_rd=1.00:0.00 / mixed_ref=1 / me_range=16 / chroma_me=1 / trellis=1 / 8x8dct=1 / cqm=0 / deadzone=21,11 /
fast_pskip=0 / chroma_qp_offset=-2 / threads=12 / sliced_threads=0 / nr=0 / decimate=1 / interlaced=0 /
bluray_compat=0 / constrained_intra=0 / bframes=3 / b_pyramid=2 / b_adapt=2 / b_bias=0 / direct=3 /
weightb=1 / open_gop=0 / weightp=2 / keyint=250 / keyint_min=23 / scenecut=40 / intra_refresh=0 / rc_lookahead=50 /
rc=2pass / mbtree=1 / bitrate=8450 / ratetol=1.0 / qcomp=0.60 / qpmin=0 / qpmax=69 / qpstep=4 / cplxblur=20.0 /
qblur=0.5 / ip_ratio=1.40 / aq=1:1.00
Default                                  : Да
Forced                                   : Нет

Аудио #1
Идентификатор                            : 2
Формат                                   : AC-3
Формат/Информация                        : Audio Coding 3
Расширение режима                        : CM (complete main)
Идентификатор кодека                     : A_AC3
Продолжительность                        : 1 ч. 49 м.
Вид битрейта                             : Постоянный
Битрейт                                  : 448 Кбит/сек
Каналы                                   : 6 каналов
Расположение каналов                     : Front: L C R, Side: L R, LFE
Частота                                  : 48,0 КГц
Битовая глубина                          : 16 бит
Метод сжатия                             : С потерями
Размер потока                            : 352 Мбайт (4%)
Заголовок                                : MVO
Язык                                     : Russian
Default                                  : Да
Forced                                   : Нет

Аудио #2
Идентификатор                            : 3
Формат                                   : DTS
Формат/Информация                        : Digital Theater Systems
Идентификатор кодека                     : A_DTS
Продолжительность                        : 1 ч. 49 м.
Вид битрейта                             : Постоянный
Битрейт                                  : 1510 Кбит/сек
Каналы                                   : 6 каналов
Расположение каналов                     : Front: L C R, Side: L R, LFE
Частота                                  : 48,0 КГц
Битовая глубина                          : 24 бит
Метод сжатия                             : С потерями
Размер потока                            : 1,16 Гбайт (15%)
Язык                                     : English
Default                                  : Нет
Forced                                   : Нет

Текст #1
Идентификатор                            : 4
Формат                                   : UTF-8
Идентификатор кодека                     : S_TEXT/UTF8
Идентификатор кодека/Информация          : UTF-8 Plain Text
Язык                                     : Russian
Default                                  : Да
Forced                                   : Нет

Текст #2
Идентификатор                            : 5
Формат                                   : UTF-8
Идентификатор кодека                     : S_TEXT/UTF8
Идентификатор кодека/Информация          : UTF-8 Plain Text
Язык                                     : English
Default                                  : Нет
Forced                                   : Нет
загрузка...
Правила, инструкции, FAQ!!!
Торрент  Добавлен [18 дек 2014, 23:34] Скачать торрент
Скачать торрент
[ Размер 40.47 КБ / Просмотров 6 ]

Статус
Проверен 
 
Размер  7.99 ГБ
Приватный: Нет (DHT включён)
.torrent скачан  92
Как залить торрент? | Как скачать Torrent? | Как смотреть и слушать онлайн?  


     Отправить личное сообщение
   
Страница 1 из 1
Показать сообщения за:  Поле сортировки  
Начать новую тему Ответить на тему

   Похожие торренты   Автор   Ответы   Просмотры   Последнее сообщение 
В этой теме нет новых непрочитанных сообщений. Скачать торрент Проверен Банда Келли / Ned Kelly (2003) DVDRip

в форуме Вестерн, Размер: 1.58 ГБ, Здоровье: 100%

Anonymous

0
44|13

155
126

18 дек 2014, 23:31

Anonymous Перейти к последнему сообщению

В этой теме нет новых непрочитанных сообщений. Скачать торрент Проверен Гномео и Джульетта в 3Д / Gnomeo & Juliet 3D (Келли Эсбёри / Kelly Asbury) [2011, Мультфильм, Фэнтези, Мелодрама, Комедия, BDrip, 1080p] OverUnder / Вертикальная стереопара

в форуме 3D Мультфильмы, Размер: 7.7 ГБ, Здоровье: 0%

Anonymous

0
0|0

0
0

07 сен 2016, 18:08

Anonymous Перейти к последнему сообщению

В этой теме нет новых непрочитанных сообщений. Скачать торрент Проверен Шрек 2 в 3Д / Shrek 2 3D (Эндрю Адамсон, Келли Эсбёри / Andrew Adamson, Kelly Asbury) [2004 г., фэнтези, комедия, приключения, семейный, мультфильм, BDrip 1080p] Anaglyph / Анаглиф

в форуме 3D Мультфильмы, Размер: 6.02 ГБ, Здоровье: 0%

Anonymous

0
0|0

10
0

07 сен 2016, 17:50

Anonymous Перейти к последнему сообщению

В этой теме нет новых непрочитанных сообщений. Скачать торрент Проверен Шрек 2 в 3Д / Shrek 2 3D (Эндрю Адамсон, Келли Эсбёри / Andrew Adamson, Kelly Asbury) [2004 г., фэнтези, комедия, приключения, семейный, мультфильм, BDrip 1080p] OverUnder / Вертикальная стереопара

в форуме 3D Мультфильмы, Размер: 10.76 ГБ, Здоровье: 0%

Anonymous

0
0|0

7
0

07 сен 2016, 17:32

Anonymous Перейти к последнему сообщению

В этой теме нет новых непрочитанных сообщений. Скачать торрент Проверен Герои Келли / Kelly's Heroes (1970) BDRip 720p | P

в форуме 720p | 1080p, Размер: 5.76 ГБ, Здоровье: 100%

Anonymous

0
11|0

66
206

10 авг 2014, 00:46

Anonymous Перейти к последнему сообщению



Сейчас этот форум просматривают: нет зарегистрированных пользователей и гости: 1


Вы не можете начинать темы
Вы не можете отвечать на сообщения
Вы не можете редактировать свои сообщения
Вы не можете удалять свои сообщения
Вы не можете добавлять вложения

Перейти:  

!ВНИМАНИЕ!
 Ресурс не предоставляет электронные версии произведений, а занимается лишь коллекционированием и каталогизацией ссылок, присылаемых и публикуемых на форуме нашими читателями. Если вы являетесь правообладателем какого-либо представленного материала и не желаете чтобы ссылка на него находилась в нашем каталоге, свяжитесь с нами и мы незамедлительно удалим её. Файлы для обмена на трекере предоставлены пользователями сайта, и администрация не несёт ответственности за их содержание. Просьба не заливать файлы, защищенные авторскими правами, а также файлы нелегального содержания!