На всех торрентах на трекере установлена скидка на скачивание в размере 100 процентов(а).
 Возможность скачивания торрента НЕ зависит от ограничений при низком ратио, низком аплоаде, требуемом ратио или требуемом аплоаде.


Начать новую тему Ответить на тему
Статистика раздачи
Размер: 4.2 ГБ | Добавлен: 16 дек 2014, 21:49 | Скачали: 430
Сидеров: 55  [0 байт/сек]    Личеров: 12  [0 байт/сек]
Пред. тема | След. тема 

Автор
Сообщение

СообщениеДобавлено: 16 дек 2014, 21:49 

Название: Поселенцы
Оригинальное название: Squatters
Год выхода: 2014
Жанр: Драма
Режиссер: Мартин Вайз
В ролях: Люк Граймс, Габриэлла Уайлд, Томас Деккер, Ричард Дрейфусс, Нэнси Трэвис, Джина Мантенья, Ивэн Росс, Лолита Давидович, Крис Уильямс, Эндрю Ховард

О фильме:
Рано вернувшаяся домой из отпуска богатая пара обнаруживает у себя в доме двух бездомных влюбленных.


Страна: США
Студия: Kelly
Продолжительность: 01:41:33
Перевод: Профессиональный многоголосый


Кодек: MPEG-4 AVC
Качество: HDTV 1080i
Видео: 5041 Кбит/с, 1920x1080, 25.000 кадр/с
Звук: Русский (АС3, 6 ch, 384 Кбит/с), (MP2, 2 ch, 192 Кбит/с)

Семпл


Общее
Идентификатор : 17 (0x11)
Полное имя : Poselency.2014.HDTV(1080i).MediaClub.ts
Формат : MPEG-TS
Размер файла : 4,20 Гбайт
Продолжительность : 1 ч. 41 м.
Режим общего битрейта : Переменный
Общий поток : 5916 Кбит/сек

Видео
Идентификатор : 304 (0x130)
Идентификатор меню : 17104 (0x42D0)
Формат : AVC
Формат/Информация : Advanced Video Codec
Профиль формата : High@L4.0
Параметр CABAC формата : Да
Параметр ReFrames формата : 4 кадра
Параметр GOP формата : M=4, N=28
Идентификатор кодека : 27
Продолжительность : 1 ч. 41 м.
Битрейт : 5041 Кбит/сек
Ширина : 1920 пикселей
Высота : 1080 пикселей
Соотношение сторон : 16:9
Частота кадров : 25,000 кадров/сек
Стандарт вещания : Component
Цветовое пространство : YUV
Субдискретизация насыщенности : 4:2:0
Битовая глубина : 8 бит
Тип развёртки : Чересстрочная
Порядок развёртки : Верхнее поле первое
Бит/(Пиксели*Кадры) : 0.097
Размер потока : 3,58 Гбайт (85%)
Основные цвета : BT.709
Характеристики трансфера : BT.709
Коэффициенты матрицы : BT.709

Аудио #1
Идентификатор : 404 (0x194)
Идентификатор меню : 17104 (0x42D0)
Формат : MPEG Audio
Версия формата : Version 1
Профиль формата : Layer 2
Идентификатор кодека : 4
Продолжительность : 1 ч. 41 м.
Вид битрейта : Постоянный
Битрейт : 192 Кбит/сек
Каналы : 2 канала
Частота : 48,0 КГц
Метод сжатия : С потерями
Задержка видео : -766 мс.
Размер потока : 139 Мбайт (3%)
Язык : Russian
Язык, дополнительно : Clean effects

Аудио #2
Идентификатор : 424 (0x1A8)
Идентификатор меню : 17104 (0x42D0)
Формат : AC-3
Формат/Информация : Audio Coding 3
Расширение режима : CM (complete main)
Параметр Endianness формата : Big
Идентификатор кодека : 6
Продолжительность : 1 ч. 41 м.
Вид битрейта : Постоянный
Битрейт : 384 Кбит/сек
Каналы : 6 каналов
Расположение каналов : Front: L C R, Side: L R, LFE
Частота : 48,0 КГц
Битовая глубина : 16 бит
Метод сжатия : С потерями
Задержка видео : -838 мс.
Размер потока : 279 Мбайт (6%)
Язык : Russian
Язык, дополнительно : Clean effects

Меню
Идентификатор : 1704 (0x6A8)
Идентификатор меню : 17104 (0x42D0)
Продолжительность : 1 ч. 41 м.
Список : 304 (0x130) (AVC) / 404 (0x194) (MPEG Audio, Russian) / 424 (0x1A8) (AC-3, Russian)
Язык : / Russian / Russian


Релиз от:
загрузка...
Правила, инструкции, FAQ!!!
Торрент  Добавлен [16 дек 2014, 21:49] Скачать торрент
Скачать торрент
[ Размер 21.61 КБ / Просмотров 2 ]

Статус
Проверен 
 
Размер  4.2 ГБ
Приватный: Нет (DHT включён)
.torrent скачан  430
Как залить торрент? | Как скачать Torrent? | Как смотреть и слушать онлайн?  


     Отправить личное сообщение
   
Страница 1 из 1
Показать сообщения за:  Поле сортировки  
Начать новую тему Ответить на тему

   Похожие торренты   Автор   Ответы   Просмотры   Последнее сообщение 
В этой теме нет новых непрочитанных сообщений. Скачать торрент Проверен Поселенцы / Squatters (2014) WEB-DLRip | iTunes

в форуме Драмы, Мелодрамы, Размер: 1.37 ГБ, Здоровье: 100%

Anonymous

0
433|81

56
1967

26 авг 2014, 19:51

Anonymous Перейти к последнему сообщению

В этой теме нет новых непрочитанных сообщений. Скачать торрент Проверен Linkin Park • Download Festival 2014 (14.06.2014) [Palladia][2014, Alternative Rock, HDTV 1080i]

в форуме Концерты (HD-Video), Размер: 1.55 ГБ, Здоровье: 100%

Anonymous

0
1|0

12
0

23 окт 2016, 11:09

Anonymous Перейти к последнему сообщению

В этой теме нет новых непрочитанных сообщений. Скачать торрент Проверен U2 - 2014-10-14 - Le Grand Journal, Canal Plus, France [2014, Rock, HDTV 1080i]

в форуме Концерты (HD-Video), Размер: 662.2 МБ, Здоровье: 100%

Anonymous

0
1|0

0
0

23 окт 2016, 14:08

Anonymous Перейти к последнему сообщению

В этой теме нет новых непрочитанных сообщений. Скачать торрент Проверен Avril Lavigne - Summer Sonic 2014 [2014, Pop-Rock, HDTV 1080i]

в форуме Концерты (HD-Video), Размер: 1.97 ГБ, Здоровье: 100%

Anonymous

0
11|10

44
1

26 апр 2015, 22:14

Anonymous Перейти к последнему сообщению

В этой теме нет новых непрочитанных сообщений. Скачать торрент Проверен Coldplay - Magic(Live,Canal+,24.04.2014) [2014, rock, HDTV 1080i]

в форуме Концерты (HD-Video), Размер: 356.02 МБ, Здоровье: 100%

Anonymous

0
1|0

6
0

23 окт 2016, 10:42

Anonymous Перейти к последнему сообщению



Сейчас этот форум просматривают: нет зарегистрированных пользователей и гости: 2


Вы не можете начинать темы
Вы не можете отвечать на сообщения
Вы не можете редактировать свои сообщения
Вы не можете удалять свои сообщения
Вы не можете добавлять вложения

Перейти:  

!ВНИМАНИЕ!
 Ресурс не предоставляет электронные версии произведений, а занимается лишь коллекционированием и каталогизацией ссылок, присылаемых и публикуемых на форуме нашими читателями. Если вы являетесь правообладателем какого-либо представленного материала и не желаете чтобы ссылка на него находилась в нашем каталоге, свяжитесь с нами и мы незамедлительно удалим её. Файлы для обмена на трекере предоставлены пользователями сайта, и администрация не несёт ответственности за их содержание. Просьба не заливать файлы, защищенные авторскими правами, а также файлы нелегального содержания!