На всех торрентах на трекере установлена скидка на скачивание в размере 100 процентов(а).
 Возможность скачивания торрента НЕ зависит от ограничений при низком ратио, низком аплоаде, требуемом ратио или требуемом аплоаде.


Начать новую тему Ответить на тему
Статистика раздачи
Размер: 7.76 ГБ | Добавлен: 14 дек 2014, 17:39 | Скачали: 123
Сидеров: 17  [0 байт/сек]    Личеров: 1  [0 байт/сек]
Пред. тема | След. тема 

Автор
Сообщение

СообщениеДобавлено: 14 дек 2014, 17:39 

Название: Чаплин
Оригинальное название: Chaplin
Год выхода: 1992
Жанр: драма, биография
Режиссер: Ричард Аттенборо
В ролях: Роберт Дауни мл., Джеральдина Чаплин, Пол Рис, Джон Тоу, Мойра Келли, Энтони Хопкинс, Дэн Эйкройд, Мариса Томей, Пенелопа Энн Миллер, Кевин Клайн

О фильме: Фильм охватывает всю жизнь великого Чаплина, начиная с нищего детства в Лондоне. Перед зрителем проходит его работа в водевиле, ни с чем не сопоставимый успех кинозвезды и режиссера немого кино, его вынужденный отъезд в Швейцарию из-за обвинений за сочувствие коммунистам, триумфальное возвращение в Голливуд для принятия особого «Оскара» за труд всей его жизни.



Выпущено: Carolco Pictures
Продолжительность: 02:24:40
Перевод: Профессиональный (многоголосый, закадровый) (лицензия)


Кодек: x264
Качество: BDRip (источник: Blu-ray Disc)
Видео: 1920x1040 (16:9), 23.976 fps, 7007 kbps
Аудио #1: AC-3, 6 ch, 448 kbps (Rus)
Аудио #2: AC-3, 2 ch, 224 kbps (Eng)
Субтитры: Русские, Английские
Скачать: сэмпл

Скриншоты

Общее
Уникальный идентификатор : 223638192539731428815744640284056786695 (0xA83F26302462FCBB81DDB779EE829707)
Полное имя : Chaplin.1992.BDRip.1080p.Rus.Eng.mkv
Формат : Matroska
Версия формата : Version 2
Размер файла : 7,76 Гбайт
Продолжительность : 2 ч. 24 м.
Общий поток : 7680 Кбит/сек
Название фильма : Чаплин / Chaplin (1992)
Дата кодирования : UTC 2012-08-03 15:08:29
Программа кодирования : mkvmerge v5.7.0 ('The Whirlwind') built on Jul 8 2012 20:08:51
Библиотека кодирования : libebml v1.2.3 + libmatroska v1.3.0

Видео
Идентификатор : 1
Формат : AVC
Формат/Информация : Advanced Video Codec
Профиль формата : High@L4.1
Параметр CABAC формата : Да
Параметр ReFrames формата : 4 кадра
Идентификатор кодека : V_MPEG4/ISO/AVC
Продолжительность : 2 ч. 24 м.
Битрейт : 7007 Кбит/сек
Ширина : 1920 пикселей
Высота : 1040 пикселей
Соотношение сторон : 16:9
Частота кадров : 23,976 кадра/сек
Цветовое пространство : YUV
Субдискретизация насыщенности : 4:2:0
Битовая глубина : 8 бит
Тип развёртки : Прогрессивная
Бит/(Пиксели*Кадры) : 0.146
Размер потока : 6,93 Гбайт (89%)
Заголовок : Release by AlexKa
Библиотека кодирования : x264 core 125 r2208 d9d2288
Настройки программы : cabac=1 / ref=4 / deblock=1:-3:-3 / analyse=0x3:0x133 / me=umh / subme=10 / psy=1 / psy_rd=1.00:0.10 / mixed_ref=1 / me_range=32 / chroma_me=1 / trellis=2 / 8x8dct=1 / cqm=0 / deadzone=21,11 / fast_pskip=0 / chroma_qp_offset=-3 / threads=12 / lookahead_threads=2 / sliced_threads=0 / nr=0 / decimate=0 / interlaced=0 / bluray_compat=0 / constrained_intra=0 / bframes=5 / b_pyramid=2 / b_adapt=2 / b_bias=0 / direct=3 / weightb=1 / open_gop=0 / weightp=2 / keyint=240 / keyint_min=23 / scenecut=40 / intra_refresh=0 / rc=2pass / mbtree=0 / bitrate=7007 / ratetol=1.0 / qcomp=0.60 / qpmin=0 / qpmax=69 / qpstep=4 / cplxblur=20.0 / qblur=0.5 / ip_ratio=1.40 / pb_ratio=1.30 / aq=1:0.80
Язык : English

Аудио #1
Идентификатор : 2
Формат : AC-3
Формат/Информация : Audio Coding 3
Расширение режима : CM (complete main)
Идентификатор кодека : A_AC3
Продолжительность : 2 ч. 24 м.
Вид битрейта : Постоянный
Битрейт : 448 Кбит/сек
Каналы : 6 каналов
Расположение каналов : Front: L C R, Side: L R, LFE
Частота : 48,0 КГц
Битовая глубина : 16 бит
Метод сжатия : С потерями
Размер потока : 464 Мбайт (6%)
Заголовок : Rus
Язык : Russian

Аудио #2
Идентификатор : 3
Формат : AC-3
Формат/Информация : Audio Coding 3
Расширение режима : CM (complete main)
Идентификатор кодека : A_AC3
Продолжительность : 2 ч. 24 м.
Вид битрейта : Постоянный
Битрейт : 224 Кбит/сек
Каналы : 2 канала
Расположение каналов : Front: L R
Частота : 48,0 КГц
Битовая глубина : 16 бит
Метод сжатия : С потерями
Размер потока : 232 Мбайт (3%)
Заголовок : Eng
Язык : English

Текст #1
Идентификатор : 4
Формат : UTF-8
Идентификатор кодека : S_TEXT/UTF8
Идентификатор кодека/Информация : UTF-8 Plain Text
Заголовок : Rus
Язык : Russian

Текст #2
Идентификатор : 5
Формат : UTF-8
Идентификатор кодека : S_TEXT/UTF8
Идентификатор кодека/Информация : UTF-8 Plain Text
Заголовок : Eng
Язык : English

Меню
00:00:00.000 : :Chapter 01
00:04:18.841 : :Chapter 02
00:07:28.322 : :Chapter 03
00:10:01.767 : :Chapter 04
00:14:19.024 : :Chapter 05
00:17:03.814 : :Chapter 06
00:22:21.048 : :Chapter 07
00:25:30.487 : :Chapter 08
00:30:16.981 : :Chapter 09
00:35:56.571 : :Chapter 10
00:40:44.859 : :Chapter 11
00:45:47.411 : :Chapter 12
00:48:36.997 : :Chapter 13
00:51:59.950 : :Chapter 14
00:54:21.508 : :Chapter 15
00:57:47.338 : :Chapter 16
01:02:22.029 : :Chapter 17
01:06:14.720 : :Chapter 18
01:09:26.120 : :Chapter 19
01:12:49.782 : :Chapter 20
01:14:43.645 : :Chapter 21
01:18:37.921 : :Chapter 22
01:24:25.643 : :Chapter 23
01:30:01.604 : :Chapter 24
01:34:14.690 : :Chapter 25
01:38:09.592 : :Chapter 26
01:42:58.881 : :Chapter 27
01:44:27.928 : :Chapter 28
01:50:42.886 : :Chapter 29
01:53:47.946 : :Chapter 30
01:56:49.419 : :Chapter 31
02:00:09.118 : :Chapter 32
02:04:18.284 : :Chapter 33
02:07:48.577 : :Chapter 34
02:11:34.386 : :Chapter 35
02:16:51.203 : :Chapter 36
02:24:39.128 : :Chapter 37
загрузка...
Правила, инструкции, FAQ!!!
Торрент  Добавлен [14 дек 2014, 17:39] Скачать торрент
Скачать торрент
[ Размер 39.36 КБ / Просмотров 3 ]

Статус
Проверен 
 
Размер  7.76 ГБ
Приватный: Нет (DHT включён)
.torrent скачан  123
Как залить торрент? | Как скачать Torrent? | Как смотреть и слушать онлайн?  


     Отправить личное сообщение
   
Страница 1 из 1
Показать сообщения за:  Поле сортировки  
Начать новую тему Ответить на тему

   Похожие торренты   Автор   Ответы   Просмотры   Последнее сообщение 
В этой теме нет новых непрочитанных сообщений. Скачать торрент Проверен Чаплин / Chaplin (1992) HDRip | Р

в форуме Драмы, Мелодрамы, Размер: 1.45 ГБ, Здоровье: 100%

Гость

0
22|2

56
348

14 дек 2014, 17:37

Гость Перейти к последнему сообщению

В этой теме нет новых непрочитанных сообщений. Скачать торрент Проверен Пассажир 57 / Passenger 57 (1992) BDRip 1080p | D, P, A

в форуме 720p | 1080p, Размер: 7.95 ГБ, Здоровье: 100%

Гость

0
12|10

30
47

18 дек 2014, 23:07

Гость Перейти к последнему сообщению

В этой теме нет новых непрочитанных сообщений. Скачать торрент Ущерб / Damage (1992) BDRip 1080p

в форуме 720p | 1080p, Размер: 8.24 ГБ, Здоровье: 0%

Anonymous

0
0|0

26
0

02 фев 2014, 19:50

Anonymous Перейти к последнему сообщению

В этой теме нет новых непрочитанных сообщений. Скачать торрент Проверен Считанные секунды / Split second (1992) BDRip 1080p | P, A

в форуме 720p | 1080p, Размер: 9.6 ГБ, Здоровье: 100%

Anonymous

0
248|193

77
418

31 май 2015, 20:33

Anonymous Перейти к последнему сообщению

В этой теме нет новых непрочитанных сообщений. Скачать торрент Проверен AC/DC - Live at Donington [1080p] [1992 г., Hard Rock, BDRip]

в форуме Концерты (HD-Video), Размер: 14.12 ГБ, Здоровье: 100%

Гость

0
80|14

233
10

26 апр 2015, 22:14

Гость Перейти к последнему сообщению



Сейчас этот форум просматривают: нет зарегистрированных пользователей и гости: 2


Вы не можете начинать темы
Вы не можете отвечать на сообщения
Вы не можете редактировать свои сообщения
Вы не можете удалять свои сообщения
Вы не можете добавлять вложения

Перейти:  

!ВНИМАНИЕ!
 Ресурс не предоставляет электронные версии произведений, а занимается лишь коллекционированием и каталогизацией ссылок, присылаемых и публикуемых на форуме нашими читателями. Если вы являетесь правообладателем какого-либо представленного материала и не желаете чтобы ссылка на него находилась в нашем каталоге, свяжитесь с нами и мы незамедлительно удалим её. Файлы для обмена на трекере предоставлены пользователями сайта, и администрация не несёт ответственности за их содержание. Просьба не заливать файлы, защищенные авторскими правами, а также файлы нелегального содержания!