На всех торрентах на трекере установлена скидка на скачивание в размере 100 процентов(а).
 Возможность скачивания торрента НЕ зависит от ограничений при низком ратио, низком аплоаде, требуемом ратио или требуемом аплоаде.


Начать новую тему Ответить на тему
Статистика раздачи
Размер: 7.13 ГБ | Добавлен: 12 дек 2014, 21:45 | Скачали: 0
Сидеров: 26  [0 байт/сек]    Личеров: 2  [0 байт/сек]
Пред. тема | След. тема 

Автор
Сообщение

СообщениеДобавлено: 12 дек 2014, 21:45 

Год выпуска: 1993
Производство: США | New Line Cinema
Жанр: Драма, криминал

Описание фильма:
Главный герой — чернокожий парень, который борется за выживание, зарабатывая деньги на улицах своего квартала, приторговывает наркотой, совершает грабежи, убийства и другие незаконные действия. Его жизнь в прямом смысле одна сплошная «черная» полоса. Есть ли выход?

Режиссер: Альберт Хьюз, Аллен Хьюз
Актеры: Тайрин Тернер, Лоренц Тейт, Сэмюэл Л. Джексон, Джада Пинкетт Смит, Билл Дьюк, Энтони Джонсон, Гленн Пламмер, Клифтон Пауэлл, Чарльз С. Даттон, Вонте Свит, Тодд Шорт, Дуэйн Л. Барнс, ЭмСи Эйхт, Реджинальд Баллард, Ханди Александер, Синтия Кэлхун, Стэйси Арнелл, Билл Дьюк, Иоланда Уитэйкер, Сэмюэл Монро

Продолжительность: 01:37:34
Качество видео: BDRip
Перевод: Профессиональный (многоголосый, закадровый) [CP-Digital] + Профессиональный (двухголосый, закадровый) [Эльрон]
Язык субтитров: Английский, Французский, Испанский
Вид субтитров: Вшитые, отключаемые



Дата мировой премьеры: 26 мая 1993
Дата выхода DVD релиза: 29 мая 2008, «CP-Digital»

Видео: MPEG-4 AVC/H.264, 1920x1080 (16:9), 23,976 fps, ~9179 kbps avg, 0.185 bit/pixel
Аудио №1: 48 kHz, AC-3, 6 ch, (Front: L C R, Side: L R), LFE ~448 kbps avg | Русский MVO
Аудио №2: 48 kHz, AC-3, 2 ch, (Front: L R), ~192 kbps avg | Русский DVO
Аудио №3: 48 kHz, AC-3, 6 ch, (Front: L C R, Side: L R), LFE ~640 kbps avg | Английский
Сэмпл: Скачать
Код:
Код:
General
Unique ID                      : 243502223027230240232223150251202966609 (0xB730D2814A184560B666AB0DE51DF451)
Complete name                  : I:\Фильмы\Ugroza.dlja.obschestva.1993.BDRip.1080p.mkv
Format                         : Matroska
Format version                 : Version 4 / Version 2
File size                      : 7.13 GiB
Duration                       : 1h 37mn
Overall bit rate               : 10.5 Mbps
Movie name                     : Menace II Society (1993)
Encoded date                   : UTC 2014-12-02 03:05:32
Writing application            : mkvmerge v6.9.1 ('Blue Panther') 64bit built on Apr 18 2014 18:23:38
Writing library                : libebml v1.3.0 + libmatroska v1.4.1

Video
ID                             : 1
Format                         : AVC
Format/Info                    : Advanced Video Codec
Format profile                 :
Format settings, CABAC         : Yes
Format settings, ReFrames      : 5 frames
Codec ID                       : V_MPEG4/ISO/AVC
Duration                       : 1h 37mn
Bit rate                       : 9 179 Kbps
Width                          : 1 920 pixels
Height                         : 1 080 pixels
Display aspect ratio           : 16:9
Frame rate mode                : Constant
Frame rate                     : 23.976 fps
Color space                    : YUV
Chroma subsampling             : 4:2:0
Bit depth                      : 8 bits
Scan type                      : Progressive
Bits/(Pixel*Frame)             : 0.185
Stream size                    : 6.11 GiB (86%)
Title                          : Menace II Society (1993)
Writing library                : x264 core 130 r2273 b3065e6
Encoding settings              : cabac=1 / ref=5 / deblock=1:-3:-3 / analyse=0x3:0x133 / me=umh / subme=11 / psy=1 / psy_rd=1.00:0.10 / mixed_ref=1 / me_range=32 / chroma_me=1 / trellis=2 / 8x8dct=1 / cqm=0 / deadzone=21,11 / fast_pskip=1 / chroma_qp_offset=-3 / threads=6 / lookahead_threads=1 / sliced_threads=0 / nr=0 / decimate=1 / interlaced=0 / bluray_compat=0 / constrained_intra=0 / bframes=8 / b_pyramid=2 / b_adapt=2 / b_bias=0 / direct=3 / weightb=1 / open_gop=0 / weightp=2 / keyint=250 / keyint_min=23 / scenecut=40 / intra_refresh=0 / rc_lookahead=60 / rc=2pass / mbtree=1 / bitrate=9179 / ratetol=1.0 / qcomp=0.60 / qpmin=0 / qpmax=69 / qpstep=4 / cplxblur=20.0 / qblur=0.5 / ip_ratio=1.40 / aq=1:1.00
Language                       : English
Default                        : Yes
Forced                         : No

Audio #1
ID                             : 2
Format                         : AC-3
Format/Info                    : Audio Coding 3
Mode extension                 : CM (complete main)
Format settings, Endianness    : Big
Codec ID                       : A_AC3
Duration                       : 1h 37mn
Bit rate mode                  : Constant
Bit rate                       : 448 Kbps
Channel(s)                     : 6 channels
Channel positions              : Front: L C R, Side: L R, LFE
Sampling rate                  : 48.0 KHz
Bit depth                      : 16 bits
Compression mode               : Lossy
Stream size                    : 313 MiB (4%)
Title                          : AC3, 6 ch, 448 Kbps, CP-Digital
Language                       : Russian
Default                        : Yes
Forced                         : No

Audio #2
ID                             : 3
Format                         : AC-3
Format/Info                    : Audio Coding 3
Mode extension                 : CM (complete main)
Format settings, Endianness    : Big
Codec ID                       : A_AC3
Duration                       : 1h 37mn
Bit rate mode                  : Constant
Bit rate                       : 192 Kbps
Channel(s)                     : 2 channels
Channel positions              : Front: L R
Sampling rate                  : 48.0 KHz
Bit depth                      : 16 bits
Compression mode               : Lossy
Stream size                    : 134 MiB (2%)
Title                          : AC3, 2 ch, 192 Kbps, Эльрон
Language                       : Russian
Default                        : No
Forced                         : No

Audio #3
ID                             : 4
Format                         : AC-3
Format/Info                    : Audio Coding 3
Mode extension                 : CM (complete main)
Format settings, Endianness    : Big
Codec ID                       : A_AC3
Duration                       : 1h 37mn
Bit rate mode                  : Constant
Bit rate                       : 640 Kbps
Channel(s)                     : 6 channels
Channel positions              : Front: L C R, Side: L R, LFE
Sampling rate                  : 48.0 KHz
Bit depth                      : 16 bits
Compression mode               : Lossy
Stream size                    : 447 MiB (6%)
Title                          : AC3, 6 ch, 640 Kbps, Original
Language                       : English
Default                        : No
Forced                         : No

Text #1
ID                             : 5
Format                         : UTF-8
Codec ID                       : S_TEXT/UTF8
Codec ID/Info                  : UTF-8 Plain Text
Language                       : English
Default                        : No
Forced                         : No

Text #2
ID                             : 6
Format                         : UTF-8
Codec ID                       : S_TEXT/UTF8
Codec ID/Info                  : UTF-8 Plain Text
Language                       : French
Default                        : No
Forced                         : No

Text #3
ID                             : 7
Format                         : UTF-8
Codec ID                       : S_TEXT/UTF8
Codec ID/Info                  : UTF-8 Plain Text
Language                       : Spanish
Default                        : No
Forced                         : No

Menu
00:00:00.000                   : en:Chapter 01
00:03:54.231                   : en:Chapter 02
00:07:15.234                   : en:Chapter 03
00:14:55.868                   : en:Chapter 04
00:21:25.137                   : en:Chapter 05
00:28:53.001                   : en:Chapter 06
00:33:11.543                   : en:Chapter 07
00:43:43.095                   : en:Chapter 08
00:49:48.466                   : en:Chapter 09
00:53:59.821                   : en:Chapter 10
01:06:13.328                   : en:Chapter 11
01:12:30.735                   : en:Chapter 12
01:20:38.330                   : en:Chapter 13
01:31:05.912                   : en:Chapter 14
[font=Georgia]Скриншоты:

загрузка...
Правила, инструкции, FAQ!!!
Торрент  Добавлен [12 дек 2014, 21:45] Скачать торрент
Скачать торрент
[ Размер 18.66 КБ / Просмотров 11 ]

Статус
Проверен 
 
Размер  7.13 ГБ
Приватный: Нет (DHT включён)
.torrent скачан  0
Как залить торрент? | Как скачать Torrent? | Как смотреть и слушать онлайн?  


     Отправить личное сообщение
   
Страница 1 из 1
Показать сообщения за:  Поле сортировки  
Начать новую тему Ответить на тему

   Похожие торренты   Автор   Ответы   Просмотры   Последнее сообщение 
В этой теме нет новых непрочитанных сообщений. Скачать торрент Проверен (Heavy metal) (Paul DiAnno)Killers - Menace To Society - 1994, APE (image+.cue), lossless

в форуме Heavy, Power, Progressive (Metal), Размер: 422.84 МБ, Здоровье: 0%

Anonymous

0
0|0

0
0

11 окт 2016, 18:08

Anonymous Перейти к последнему сообщению

В этой теме нет новых непрочитанных сообщений. Скачать торрент Проверен (Heavy Metal) Lizzy Borden - Menace To Society [Japan, 32XB-140, 1987] - 1986, FLAC (image+.cue), lossless

в форуме Heavy, Power, Progressive (Metal), Размер: 279.3 МБ, Здоровье: 0%

Anonymous

0
0|0

0
0

11 окт 2016, 23:30

Anonymous Перейти к последнему сообщению

В этой теме нет новых непрочитанных сообщений. Скачать торрент Проверен David Reynolds/Дэвид Рейнолдс -«Star Wars:Incredible Cross-sections of Star Wars, Episode I - The Phantom Menace: The Definitive Guide to the Craft»/«Звездные войны:Эпизод I - Скрытая угроза: Полное руководство по судам.»[1999, PDF, ENG]

в форуме Рисунок, графический дизайн, Размер: 23.82 МБ, Здоровье: 100%

Anonymous

0
16|4

233
2

27 янв 2016, 22:33

Anonymous Перейти к последнему сообщению

В этой теме нет новых непрочитанных сообщений. Скачать торрент Проверен Black Label Society - The European Invasion - Doom Troopin’ Live [2010, Heavy Metal, Southern Metal, BDRip 1080p]

в форуме Концерты (HD-Video), Размер: 17.32 ГБ, Здоровье: 100%

Anonymous

0
3|1

75
2

29 апр 2015, 19:16

Anonymous Перейти к последнему сообщению

В этой теме нет новых непрочитанных сообщений. Скачать торрент Фирма / The Firm (1993) BDRip [1080p]

в форуме 720p | 1080p, Размер: 15.77 ГБ, Здоровье: 100%

Anonymous

0
8|1

35
0

20 апр 2014, 22:00

Anonymous Перейти к последнему сообщению



Сейчас этот форум просматривают: нет зарегистрированных пользователей и гости: 1


Вы не можете начинать темы
Вы не можете отвечать на сообщения
Вы не можете редактировать свои сообщения
Вы не можете удалять свои сообщения
Вы не можете добавлять вложения

Перейти:  

!ВНИМАНИЕ!
 Ресурс не предоставляет электронные версии произведений, а занимается лишь коллекционированием и каталогизацией ссылок, присылаемых и публикуемых на форуме нашими читателями. Если вы являетесь правообладателем какого-либо представленного материала и не желаете чтобы ссылка на него находилась в нашем каталоге, свяжитесь с нами и мы незамедлительно удалим её. Файлы для обмена на трекере предоставлены пользователями сайта, и администрация не несёт ответственности за их содержание. Просьба не заливать файлы, защищенные авторскими правами, а также файлы нелегального содержания!