На всех торрентах на трекере установлена скидка на скачивание в размере 100 процентов(а).
 Возможность скачивания торрента НЕ зависит от ограничений при низком ратио, низком аплоаде, требуемом ратио или требуемом аплоаде.


Начать новую тему Ответить на тему
Статистика раздачи
Размер: 14.65 ГБ | Добавлен: 11 дек 2014, 21:40 | Скачали: 1
Сидеров: 58  [0 байт/сек]    Личеров: 1  [0 байт/сек]
Пред. тема | След. тема 

Автор
Сообщение

СообщениеДобавлено: 11 дек 2014, 21:40 

Год выпуска: 1988
Производство: США, Imagine Films Entertainment, Lucasfilm Ltd., Metro-Goldwyn-Mayer (MGM)
Жанр: Фэнтези, Приключения
Перевод: Профессиональный многоголосый, авторский
Субтитры: Отсутствуют

Режиссер: Рон Ховард
Продюсер: Найджел Вулл
Актеры: Вэл Килмер, Джоанн Уолли, Уорвик Дэвис, Джин Марш, Патриция Хейс, Билли Барти, Пэт Роуч, Гэвэн О’Херлихи, Дэвид Стейнберг, Фил Фондакаро, Тони Кокс, Роберт Джиллибрэнд, Марк Нортховер, Кевин Поллак, Рик Овертон, Джули Питерс, Марк Ванде Брэйк, Доун Доунинг, Майкл Коттерилл, Зулема Дэне, Джоэнна Дикенс, Дженнифер Гай, Рон Тарр, Сэллиэнн Ло, Рут Гринфилд, Кейт Гринфилд

Описание фильма:
Житель сказочной деревушки лилипутов Виллоу Афгуд мечтает стать добрым волшебником и занять место своего учителя — великого мага и чародея. Приключения начинаются, когда Виллоу вместе со своими детьми обнаруживает младенца «дайкини» — «больших людей» — в корзине, которую река прибила к берегу неподалеку от их дома. Отнесшийся к ребенку поначалу с неприязнью, Виллоу вскоре привязывается к нему всем сердцем. Тщетно пытаясь вернуть ребенка «большим людям», он оказывается вовлеченным в борьбу против злой королевы — колдуньи Бавморды. В своих скитаниях Виллоу встречает Сумасшедшего Мартигана, бывшего солдата и вора. Мартиган и Виллоу непрерывно спорят друг с другом, но в беде они — неразлучные друзья. Эта дружба и позволяет им добиться победы над злой колдуньей.



Продолжительность: 02:05:55
Качество видео: BDRip

Видеокодек: MPEG-4 AVC/H.264
Битрейт видео: ~11.8 Мбит/с
Размер кадра: 1920x800

Аудио1: Русский DTS, 6 ch, 1510 Кбит/с | Гаврилов
Аудио1: Русский DTS, 6 ch, 1510 Кбит/с | Многоголосый
Аудио3: Английский DTS, 6 ch, 1510 Кбит/с | Оригинал
General
Complete name : O:\Willow.1988.1080.mkv
Format : Matroska
File size : 14.6 GiB
Duration : 2h 5mn
Overall bit rate : 16.7 Mbps
Encoded date : UTC 2013-03-09 12:42:44
Writing application : mkvmerge v4.8.0 ('I Got The...') сборка от May 24 2011 03:12:58
Writing library : libebml v1.2.0 + libmatroska v1.1.0

Video
ID : 1
Format : AVC
Format/Info : Advanced Video Codec
Format profile :
Format settings, CABAC : Yes
Format settings, ReFrames : 4 frames
Muxing mode : Container profile=Unknown@4.1
Codec ID : V_MPEG4/ISO/AVC
Duration : 2h 5mn
Bit rate : 11.8 Mbps
Nominal bit rate : 12.1 Mbps
Width : 1 920 pixels
Height : 800 pixels
Display aspect ratio : 2.40:1
Frame rate : 23.976 fps
Resolution : 8 bits
Colorimetry : 4:2:0
Scan type : Progressive
Bits/(Pixel*Frame) : 0.320
Stream size : 10.4 GiB (71%)
Writing library : x264 core 130 r2273 b3065e6
Encoding settings : cabac=1 / ref=4 / deblock=1:-2:-2 / analyse=0x3:0x113 / me=umh / subme=10 / psy=1 / psy_rd=1.20:0.20 / mixed_ref=1 / me_range=32 / chroma_me=1 / trellis=2 / 8x8dct=1 / cqm=0 / deadzone=21,11 / fast_pskip=0 / chroma_qp_offset=-3 / threads=12 / lookahead_threads=1 / sliced_threads=0 / nr=0 / decimate=0 / interlaced=0 / bluray_compat=0 / constrained_intra=0 / bframes=5 / b_pyramid=2 / b_adapt=2 / b_bias=0 / direct=3 / weightb=1 / open_gop=0 / weightp=2 / keyint=240 / keyint_min=1 / scenecut=40 / intra_refresh=0 / rc_lookahead=60 / rc=2pass / mbtree=0 / bitrate=12131 / ratetol=1.0 / qcomp=0.60 / qpmin=10 / qpmax=51 / qpstep=4 / cplxblur=20.0 / qblur=0.5 / vbv_maxrate=38000 / vbv_bufsize=38000 / nal_hrd=none / ip_ratio=1.40 / pb_ratio=1.30 / aq=1:1.00

Audio #1
ID : 2
Format : DTS
Format/Info : Digital Theater Systems
Codec ID : A_DTS
Duration : 2h 5mn
Bit rate mode : Constant
Bit rate : 1 510 Kbps
Channel(s) : 6 channels
Channel positions : Front: L C R, Surround: L R, LFE
Sampling rate : 48.0 KHz
Resolution : 24 bits
Stream size : 1.33 GiB (9%)
Title : Гаврилов
Language : Russian

Audio #2
ID : 3
Format : DTS
Format/Info : Digital Theater Systems
Codec ID : A_DTS
Duration : 2h 5mn
Bit rate mode : Constant
Bit rate : 1 510 Kbps
Channel(s) : 6 channels
Channel positions : Front: L C R, Surround: L R, LFE
Sampling rate : 48.0 KHz
Resolution : 24 bits
Stream size : 1.33 GiB (9%)
Title : Многоголосый
Language : Russian

Audio #3
ID : 4
Format : DTS
Format/Info : Digital Theater Systems
Codec ID : A_DTS
Duration : 2h 5mn
Bit rate mode : Constant
Bit rate : 1 510 Kbps
Channel(s) : 6 channels
Channel positions : Front: L C R, Surround: L R, LFE
Sampling rate : 48.0 KHz
Resolution : 24 bits
Stream size : 1.33 GiB (9%)
Title : Оригинал

Скриншоты:

загрузка...
Правила, инструкции, FAQ!!!
Торрент  Добавлен [11 дек 2014, 21:40] Скачать торрент
Скачать торрент
[ Размер 73.92 КБ / Просмотров 11 ]

Статус
Проверен 
 
Размер  14.65 ГБ
Приватный: Нет (DHT включён)
.torrent скачан  1
Как залить торрент? | Как скачать Torrent? | Как смотреть и слушать онлайн?  


     Отправить личное сообщение
   
Страница 1 из 1
Показать сообщения за:  Поле сортировки  
Начать новую тему Ответить на тему

   Похожие торренты   Автор   Ответы   Просмотры   Последнее сообщение 
В этой теме нет новых непрочитанных сообщений. Скачать торрент Проверен Замужем за мафией / Married to the Mob (1988) BDRip 1080p | D, P, P2, A

в форуме 720p | 1080p, Размер: 11.65 ГБ, Здоровье: 81%

Гость

0
27|33

32
36

18 ноя 2016, 21:42

Гость Перейти к последнему сообщению

В этой теме нет новых непрочитанных сообщений. Скачать торрент Проверен Кровавый спорт / Bloodsport (1988) BDRip 1080p

в форуме 720p | 1080p, Размер: 7.75 ГБ, Здоровье: 100%

Anonymous

0
15|5

24
305

27 сен 2014, 19:52

Anonymous Перейти к последнему сообщению

В этой теме нет новых непрочитанных сообщений. Скачать торрент Проверен Человек дождя / Rain Man (1988) BDRip 1080p | P, A | Remastered

в форуме 720p | 1080p, Размер: 11.55 ГБ, Здоровье: 100%

Гость

0
21|1

109
18

07 дек 2014, 23:15

Гость Перейти к последнему сообщению

В этой теме нет новых непрочитанных сообщений. Скачать торрент Новая рождественская сказка / Scrooged (1988) BDRip 1080p

в форуме 720p | 1080p, Размер: 7.74 ГБ, Здоровье: 100%

Anonymous

0
4|2

42
2

28 дек 2013, 15:19

Anonymous Перейти к последнему сообщению

В этой теме нет новых непрочитанных сообщений. Скачать торрент Проверен Котенок по имени Гав. Сборник мультфильмов (1953-1988) [1080p] BDRip

в форуме Отечественные мультфильмы (HD Video), Размер: 6.56 ГБ, Здоровье: 100%

Гость

0
15|1

243
48

29 дек 2014, 23:51

Гость Перейти к последнему сообщению



Сейчас этот форум просматривают: нет зарегистрированных пользователей и гости: 2


Вы не можете начинать темы
Вы не можете отвечать на сообщения
Вы не можете редактировать свои сообщения
Вы не можете удалять свои сообщения
Вы не можете добавлять вложения

Перейти:  

!ВНИМАНИЕ!
 Ресурс не предоставляет электронные версии произведений, а занимается лишь коллекционированием и каталогизацией ссылок, присылаемых и публикуемых на форуме нашими читателями. Если вы являетесь правообладателем какого-либо представленного материала и не желаете чтобы ссылка на него находилась в нашем каталоге, свяжитесь с нами и мы незамедлительно удалим её. Файлы для обмена на трекере предоставлены пользователями сайта, и администрация не несёт ответственности за их содержание. Просьба не заливать файлы, защищенные авторскими правами, а также файлы нелегального содержания!