На всех торрентах на трекере установлена скидка на скачивание в размере 100 процентов(а).
 Возможность скачивания торрента НЕ зависит от ограничений при низком ратио, низком аплоаде, требуемом ратио или требуемом аплоаде.


Начать новую тему Ответить на тему
Статистика раздачи
Размер: 10.75 ГБ | Добавлен: 10 дек 2014, 23:52 | Скачали: 1
Сидеров: 124  [0 байт/сек]    Личеров: 4  [0 байт/сек]
Пред. тема | След. тема 

Автор
Сообщение

СообщениеДобавлено: 10 дек 2014, 23:52 

Год выпуска: 1986
Производство: США, Великобритания
Жанр: Фэнтези, Приключения
Перевод: Многоголосый закадровый, авторский
Субтитры: Вшитые (отключаемые)
Язык субтитров: Русские (на муз. номера), Русские (полные)

Режиссер: Джим Хэнсон
Продюсер: Эрик Рэттрэй
Актеры: Дэвид Боуи, Дженнифер Коннелли, Тоби Фрауд, Нэтали Финлэнд, Кристофер Мэлколм, Шелли Томпсон

Описание фильма:
Замечательный фильм-сказка для взрослых и для маленьких, вариация "Алисы в стране чудес". Девочку лет пятнадцати родители просят посидеть с маленьким братишкой и уходят в гости. Обиженная на родителей (у нее были свои планы), девочка придумывает историю о короле злых гоблинов, похищающем ребенка, и о тех приключениях и испытаниях, что ей приходится преодолеть в дьявольски коварном лабиринте. Сценарий написан Терри Джонсоном из группы "Монти Питон", исполнительный продюсер Джордж Лукас, ну а куклы автора "Маппет-шоу" Джима Хенсона знают все. Песни исполняет Дэвид Боуи.



Продолжительность: 01:41:02
Качество видео: BDRip

Видеокодек: MPEG-4 AVC/H.264
Битрейт видео: ~10.6 Mbps
Размер кадра: 1920x816

Аудио 1: Русский 48 kHz, DTS, 3/2 (L,C,R,l,r) + LFE ch, ~1536.00 kbps avg | Многоголосый закадровый, Лицензия R5
Аудио 2: Русский 48 kHz, AC3, 3/2 (L,C,R,l,r) + LFE ch, ~640.00 kbps avg | Многоголосый закадровый, Superbit
Аудио 3: Русский 48 kHz, AC3, 3/2 (L,C,R,l,r) + LFE ch, ~640.00 kbps avg | Одноголосый закадровый, В.Горчаков
Аудио 4: Английский 48 kHz, DTS, 3/2 (L,C,R,l,r) + LFE ch, ~1536.00 kbps avg
Аудио 5: Английский 48 kHz, AC3, 2/0 (L,R) ch, ~224.00 kbps avg | Комментарии
General
Complete name : O:\Labyrinth.1986.1080p.BDRip.mkv
Format : Matroska
File size : 10.7 GiB
Duration : 1h 41mn
Overall bit rate : 15.2 Mbps
Encoded date : UTC 2009-09-10 16:09:04
Writing application : mkvmerge v2.9.7 ('Tenderness') built on Jul 1 2009 18:43:35
Writing library : libebml v0.7.7 + libmatroska v0.8.1

Video
ID : 1
Format : AVC
Format/Info : Advanced Video Codec
Format profile :
Format settings, CABAC : Yes
Format settings, ReFrames : 5 frames
Muxing mode : Container profile=Unknown@4.1
Codec ID : V_MPEG4/ISO/AVC
Duration : 1h 40mn
Bit rate : 10.6 Mbps
Nominal bit rate : 10.9 Mbps
Width : 1 920 pixels
Height : 816 pixels
Display aspect ratio : 2.35:1
Frame rate : 23.976 fps
Resolution : 8 bits
Colorimetry : 4:2:0
Scan type : Progressive
Bits/(Pixel*Frame) : 0.283
Stream size : 7.49 GiB (70%)
Writing library : x264 core 73 r1243M 2cd0054
Encoding settings : cabac=1 / ref=5 / deblock=1:-3:-3 / analyse=0x3:0x133 / me=umh / subme=9 / psy=1 / psy_rd=1.0:0.0 / mixed_ref=1 / me_range=32 / chroma_me=1 / trellis=2 / 8x8dct=1 / cqm=0 / deadzone=21,11 / chroma_qp_offset=-2 / threads=6 / nr=0 / decimate=1 / mbaff=0 / bframes=5 / b_pyramid=0 / b_adapt=2 / b_bias=0 / direct=3 / wpredb=1 / keyint=250 / keyint_min=25 / scenecut=40 / rc_lookahead=40 / rc=2pass / mbtree=1 / bitrate=10927 / ratetol=1.0 / qcomp=0.60 / qpmin=10 / qpmax=51 / qpstep=4 / cplxblur=20.0 / qblur=0.5 / ip_ratio=1.40 / aq=1:0.80
Language : English

Audio #1
ID : 2
Format : DTS
Format/Info : Digital Theater Systems
Codec ID : A_DTS
Duration : 1h 41mn
Bit rate mode : Constant
Bit rate : 1 510 Kbps
Channel(s) : 6 channels
Channel positions : Front: L C R, Surround: L R, LFE
Sampling rate : 48.0 KHz
Resolution : 16 bits
Stream size : 1.07 GiB (10%)
Title : DTS 5.1 @ 1536 kbps - Многоголосый закадровый, R5
Language : Russian

Audio #2
ID : 3
Format : AC-3
Format/Info : Audio Coding 3
Codec ID : A_AC3
Duration : 1h 41mn
Bit rate mode : Constant
Bit rate : 640 Kbps
Channel(s) : 6 channels
Channel positions : Front: L C R, Surround: L R, LFE
Sampling rate : 48.0 KHz
Stream size : 463 MiB (4%)
Title : AC3 5.1 @ 640 kbps - Многоголосый закадровый, Супербит
Language : Russian

Audio #3
ID : 4
Format : AC-3
Format/Info : Audio Coding 3
Codec ID : A_AC3
Duration : 1h 41mn
Bit rate mode : Constant
Bit rate : 640 Kbps
Channel(s) : 6 channels
Channel positions : Front: L C R, Surround: L R, LFE
Sampling rate : 48.0 KHz
Stream size : 463 MiB (4%)
Title : AC3 5.1 @ 640 kbps - Одноголосый закадровый, В.Горчаков
Language : Russian

Audio #4
ID : 5
Format : DTS
Format/Info : Digital Theater Systems
Codec ID : A_DTS
Duration : 1h 41mn
Bit rate mode : Constant
Bit rate : 1 510 Kbps
Channel(s) : 6 channels
Channel positions : Front: L C R, Surround: L R, LFE
Sampling rate : 48.0 KHz
Resolution : 24 bits
Stream size : 1.07 GiB (10%)
Title : DTS 5.1 @ 1536 kbps
Language : English

Text #1
ID : 6
Format : UTF-8
Codec ID : S_TEXT/UTF8
Codec ID/Info : UTF-8 Plain Text
Title : Только песни
Language : Russian

Text #2
ID : 7
Format : UTF-8
Codec ID : S_TEXT/UTF8
Codec ID/Info : UTF-8 Plain Text
Title : Полные
Language : Russian

Menu
00:00:00.000 : en:00:00:00.000
00:04:09.207 : en:00:04:09.207
00:11:44.537 : en:00:11:44.537
00:16:57.975 : en:00:16:57.975
00:22:20.756 : en:00:22:20.756
00:28:53.523 : en:00:28:53.523
00:33:11.656 : en:00:33:11.656
00:38:52.997 : en:00:38:52.997
00:45:05.661 : en:00:45:05.661
00:50:48.379 : en:00:50:48.379
00:57:20.020 : en:00:57:20.020
01:03:25.468 : en:01:03:25.468
01:09:57.860 : en:01:09:57.860
01:15:50.129 : en:01:15:50.129
01:24:05.999 : en:01:24:05.999
01:30:47.567 : en:01:30:47.567

Скриншоты:

загрузка...
Правила, инструкции, FAQ!!!
Торрент  Добавлен [10 дек 2014, 23:52] Скачать торрент
Скачать торрент
[ Размер 54.43 КБ / Просмотров 18 ]

Статус
Проверен 
 
Размер  10.75 ГБ
Приватный: Нет (DHT включён)
.torrent скачан  1
Как залить торрент? | Как скачать Torrent? | Как смотреть и слушать онлайн?  


     Отправить личное сообщение
   
Страница 1 из 1
Показать сообщения за:  Поле сортировки  
Начать новую тему Ответить на тему

   Похожие торренты   Автор   Ответы   Просмотры   Последнее сообщение 
В этой теме нет новых непрочитанных сообщений. Скачать торрент Проверен Kate Mosse / Кейт Мосс - Labyrinth / Лабиринт [2007, FB2/RTF/PDF, RUS]

в форуме Детективы и Боевики, Размер: 5.24 МБ, Здоровье: 100%

Anonymous

0
5|1

0
0

09 сен 2016, 00:06

Anonymous Перейти к последнему сообщению

В этой теме нет новых непрочитанных сообщений. Скачать торрент Проверен Нэнси Дрю: Лабиринт лжи / Nancy Drew: Labyrinth of Lies (2014) PC

в форуме Приключения и квесты|я ищу, Размер: 1.74 ГБ, Здоровье: 100%

Anonymous

0
805|36

94
635

21 фев 2015, 22:30

Anonymous Перейти к последнему сообщению

В этой теме нет новых непрочитанных сообщений. Скачать торрент Проверен Кин-дза-дза! (1986) BDRip [1080p] [hand made 60fps] (1986) BDRip

в форуме Кино СССР, Размер: 4.25 ГБ, Здоровье: 100%

Гость

0
266|13

86
2

06 фев 2016, 09:46

Гость Перейти к последнему сообщению

В этой теме нет новых непрочитанных сообщений. Скачать торрент Проверен Прорва / The Money Pit (1986) BDRip 1080p

в форуме 720p | 1080p, Размер: 10.72 ГБ, Здоровье: 100%

Anonymous

0
67|32

109
222

20 апр 2015, 01:43

Anonymous Перейти к последнему сообщению

В этой теме нет новых непрочитанных сообщений. Скачать торрент Проверен Кобра / Cobra (1986) BDRip 1080p | D, P, A

в форуме 720p | 1080p, Размер: 15.49 ГБ, Здоровье: 100%

Anonymous

0
10|3

41
74

08 сен 2014, 19:35

Anonymous Перейти к последнему сообщению



Сейчас этот форум просматривают: нет зарегистрированных пользователей и гости: 2


Вы не можете начинать темы
Вы не можете отвечать на сообщения
Вы не можете редактировать свои сообщения
Вы не можете удалять свои сообщения
Вы не можете добавлять вложения

Перейти:  

!ВНИМАНИЕ!
 Ресурс не предоставляет электронные версии произведений, а занимается лишь коллекционированием и каталогизацией ссылок, присылаемых и публикуемых на форуме нашими читателями. Если вы являетесь правообладателем какого-либо представленного материала и не желаете чтобы ссылка на него находилась в нашем каталоге, свяжитесь с нами и мы незамедлительно удалим её. Файлы для обмена на трекере предоставлены пользователями сайта, и администрация не несёт ответственности за их содержание. Просьба не заливать файлы, защищенные авторскими правами, а также файлы нелегального содержания!