На всех торрентах на трекере установлена скидка на скачивание в размере 100 процентов(а).
 Возможность скачивания торрента НЕ зависит от ограничений при низком ратио, низком аплоаде, требуемом ратио или требуемом аплоаде.


Начать новую тему Ответить на тему
Статистика раздачи
Размер: 8.4 ГБ | Добавлен: 10 дек 2014, 19:09 | Скачали: 1
Сидеров: 0  [0 байт/сек]    Личеров: 0  [0 байт/сек]
Пред. тема | След. тема 

Автор
Сообщение

СообщениеДобавлено: 10 дек 2014, 19:09 

Название: Вторжение
Оригинальное название: The Invasion
Год выхода: 2007
Режиссер: Оливер Хиршбигель, Джеймс МакТиг
В ролях: Николь Кидман, Дэниэл Крэйг, Джереми Нортэм, Джексон Бонд, Джеффри Райт, Вероника Картрайт, Йозеф Зоммер, Селия Уэстон, Роджер Рис, Эрик Бенжамин, Сьюзэн Флойд, Стефани Берри, Алексис Рабен, Адам ЛеФевр, Джоанна Мерлин, Филд Бловелт, Ронда Оверби, Рейд Сассер, Брэндон Прайс, Миа Арнис Чемберс, Ава Ленет, Майкл Эндрю Келли, Джереми Хек, Лари Купер, Нанна Ингварссон, Джефф Уинкотт, Уэс Джонсон, Бекки Вудли, Паркер Уэбб, Хлои Уайетт Тэйлор, Джон С. Колтон, Джон Вульф, Майкл Л. Форрест, Тимоти Дж. Сканлин Мл., Тара Гарвуд, Женев Адэлл

О фильме:
После таинственного крушения космического корабля выясняется, что среди его останков находится нечто чужеродное, оказывающее вредоносное влияние на людей, входящих с ним в контакт. Вашингтонский психиатр Кэрол Беннелл и ее коллега Бен Дрисколл вскоре узнают шокирующую правду о вспыхнувшей эпидемии, которая, оказывается, имеет инопланетное происхождение. Люди становятся ее жертвами исключительно во время сна. В результате они полностью лишаются человеческих эмоций и начинают вести себя совсем не так, как раньше. По мере распространения этой загадочной инфекции все больше людей перестают быть похожими сами на себя, и среди них уже невозможно отличить тех, кому можно доверять. Кэрол понимает, что ей необходимо как можно дольше не спать, чтобы найти ее маленького сына, который, кажется, знает способ, как остановить вторжение пришельцев...


Страна: США, Австралия
Жанр: Фантастика, триллер
Студия: Warner Bros. Pictures
Продолжительность: 01:39:22
Перевод: Дублированный, Профессиональный двухголосый, Авторский одноголосый


Кодек: h.264
Качество: BDRip 1080p
Видео: MPEG-4, 1920x1080, 10.4 Мбит/с, 23.976 кадр/с
Звук:
Аудио #1: Русский ( AC3, 6ch, 384 Кбит/с, 48.0 KHz) Дублированный
Аудио #2: Русский ( AC3, 6ch, 448 Кбит/с, 48.0 KHz) Профессиональный двухголосый (Гланц и Королёва)
Аудио #3: Русский ( AC3, 6ch, 384 Кбит/с, 48.0 KHz) Авторский одноголосый (Ю.Немахов)
Аудио #4: Английский ( AC3, 6ch, 448 Кбит/с, 48.0 KHz) Оригинал
General
Unique ID : 217244774076148051837709453845944809769 (0xA36FD2521DAC409DBF1BEC1CAFE73929)
Complete name : The.Invasion.2007.BDRip.1080p.mkv
Format : Matroska
Format version : Version 4 / Version 2
File size : 8.40 GiB
Duration : 1h 39mn
Overall bit rate : 12.1 Mbps
Encoded date : UTC 2014-12-08 14:24:36
Writing application : mkvmerge v6.9.1 ('Blue Panther') 64bit built on Apr 18 2014 18:23:38
Writing library : libebml v1.3.0 + libmatroska v1.4.1

Video
ID : 1
Format : AVC
Format/Info : Advanced Video Codec
Format profile : High@L4.1
Format settings, CABAC : Yes
Format settings, ReFrames : 4 frames
Codec ID : V_MPEG4/ISO/AVC
Duration : 1h 39mn
Bit rate : 10.4 Mbps
Width : 1 920 pixels
Height : 1 080 pixels
Display aspect ratio : 16:9
Frame rate mode : Constant
Frame rate : 23.976 fps
Color space : YUV
Chroma subsampling : 4:2:0
Bit depth : 8 bits
Scan type : Progressive
Bits/(Pixel*Frame) : 0.210
Stream size : 7.08 GiB (84%)
Title : Video
Writing library : x264 core 125 r2200 999b753
Encoding settings : cabac=1 / ref=4 / deblock=1:-1:-1 / analyse=0x3:0x113 / me=umh / subme=8 / psy=1 / psy_rd=1.00:0.15 / mixed_ref=1 / me_range=16 / chroma_me=1 / trellis=1 / 8x8dct=1 / cqm=0 / deadzone=21,11 / fast_pskip=1 / chroma_qp_offset=-3 / threads=6 / lookahead_threads=1 / sliced_threads=0 / nr=0 / decimate=1 / interlaced=0 / bluray_compat=0 / constrained_intra=0 / bframes=3 / b_pyramid=2 / b_adapt=2 / b_bias=0 / direct=3 / weightb=1 / open_gop=0 / weightp=2 / keyint=250 / keyint_min=23 / scenecut=40 / intra_refresh=0 / rc_lookahead=50 / rc=2pass / mbtree=1 / bitrate=10445 / ratetol=1.0 / qcomp=0.60 / qpmin=0 / qpmax=69 / qpstep=4 / cplxblur=20.0 / qblur=0.5 / ip_ratio=1.40 / aq=1:1.00
Language : English
Default : Yes
Forced : No

Audio #1
ID : 2
Format : AC-3
Format/Info : Audio Coding 3
Mode extension : CM (complete main)
Format settings, Endianness : Big
Codec ID : A_AC3
Duration : 1h 39mn
Bit rate mode : Constant
Bit rate : 384 Kbps
Channel(s) : 6 channels
Channel positions : Front: L C R, Side: L R, LFE
Sampling rate : 48.0 KHz
Bit depth : 16 bits
Compression mode : Lossy
Stream size : 273 MiB (3%)
Title : Audio 1
Language : Russian
Default : Yes
Forced : No

Audio #2
ID : 3
Format : AC-3
Format/Info : Audio Coding 3
Mode extension : CM (complete main)
Format settings, Endianness : Big
Codec ID : A_AC3
Duration : 1h 39mn
Bit rate mode : Constant
Bit rate : 448 Kbps
Channel(s) : 6 channels
Channel positions : Front: L C R, Side: L R, LFE
Sampling rate : 48.0 KHz
Bit depth : 16 bits
Compression mode : Lossy
Stream size : 318 MiB (4%)
Title : Audio 2
Language : Russian
Default : No
Forced : No

Audio #3
ID : 4
Format : AC-3
Format/Info : Audio Coding 3
Mode extension : CM (complete main)
Format settings, Endianness : Big
Codec ID : A_AC3
Duration : 1h 39mn
Bit rate mode : Constant
Bit rate : 384 Kbps
Channel(s) : 6 channels
Channel positions : Front: L C R, Side: L R, LFE
Sampling rate : 48.0 KHz
Bit depth : 16 bits
Compression mode : Lossy
Stream size : 273 MiB (3%)
Title : Audio 3
Language : Russian
Default : No
Forced : No

Audio #4
ID : 5
Format : AC-3
Format/Info : Audio Coding 3
Mode extension : CM (complete main)
Format settings, Endianness : Big
Codec ID : A_AC3
Duration : 1h 39mn
Bit rate mode : Constant
Bit rate : 448 Kbps
Channel(s) : 6 channels
Channel positions : Front: L C R, Side: L R, LFE
Sampling rate : 48.0 KHz
Bit depth : 16 bits
Compression mode : Lossy
Stream size : 318 MiB (4%)
Title : Audio 4
Language : English
Default : No
Forced : No

загрузка...
Правила, инструкции, FAQ!!!
Торрент  Добавлен [10 дек 2014, 19:09] Скачать торрент
Скачать торрент
[ Размер 21.67 КБ / Просмотров 15 ]

Статус
Проверен 
 
Размер  8.4 ГБ
Приватный: Нет (DHT включён)
.torrent скачан  1
Как залить торрент? | Как скачать Torrent? | Как смотреть и слушать онлайн?  


     Отправить личное сообщение
   
Страница 1 из 1
Показать сообщения за:  Поле сортировки  
Начать новую тему Ответить на тему

   Похожие торренты   Автор   Ответы   Просмотры   Последнее сообщение 
В этой теме нет новых непрочитанных сообщений. Скачать торрент Вторжение / The Invasion (Оливер Хиршбигель / Oliver Hirschbiegel, Джеймс МакТиг / James McTeigue) [2007, США, Австралия, Ужасы, Триллер, Фантастика, BDRip] DUB

в форуме Ужасы, Размер: 1.45 ГБ, Здоровье: 0%

Anonymous

0
0|0

43
0

16 фев 2014, 13:06

Anonymous Перейти к последнему сообщению

В этой теме нет новых непрочитанных сообщений. Скачать торрент Проверен Фантастическая четверка: Вторжение Серебряного серфера / 4: Rise of the Silver (2007) BDRip 720p

в форуме 720p | 1080p, Размер: 3.81 ГБ, Здоровье: 100%

Anonymous

0
43|4

31
1468

15 авг 2014, 10:16

Anonymous Перейти к последнему сообщению

В этой теме нет новых непрочитанных сообщений. Скачать торрент Фантастическая четверка 2: Вторжение Серебряного Серфера / 4: Rise of the Silver Surfer (2007) BDRip

в форуме Фантастика, Фэнтези, Размер: 1.46 ГБ, Здоровье: 100%

Anonymous

0
90|2

50
1314

09 дек 2013, 09:14

Anonymous Перейти к последнему сообщению

В этой теме нет новых непрочитанных сообщений. Скачать торрент Проверен Black Label Society - The European Invasion - Doom Troopin’ Live [2010, Heavy Metal, Southern Metal, BDRip 1080p]

в форуме Концерты (HD-Video), Размер: 17.32 ГБ, Здоровье: 100%

Anonymous

0
3|1

75
2

29 апр 2015, 19:16

Anonymous Перейти к последнему сообщению

В этой теме нет новых непрочитанных сообщений. Скачать торрент Фантастическая четверка: Вторжение Серебряного серфера / 4: Rise of the Silver (Тим Стори / Tim Story) [2007, США, Германия, фантастика, фэнтези, боевик, триллер, BDRip-AVC] DUB + AVO (В. Королёв) + Original (Eng) + Sub (Rus, Eng)

в форуме 720p | 1080p, Размер: 3.75 ГБ, Здоровье: 100%

Anonymous

0
21|7

36
0

04 фев 2014, 21:24

Anonymous Перейти к последнему сообщению



Сейчас этот форум просматривают: нет зарегистрированных пользователей и гости: 2


Вы не можете начинать темы
Вы не можете отвечать на сообщения
Вы не можете редактировать свои сообщения
Вы не можете удалять свои сообщения
Вы не можете добавлять вложения

Перейти:  

!ВНИМАНИЕ!
 Ресурс не предоставляет электронные версии произведений, а занимается лишь коллекционированием и каталогизацией ссылок, присылаемых и публикуемых на форуме нашими читателями. Если вы являетесь правообладателем какого-либо представленного материала и не желаете чтобы ссылка на него находилась в нашем каталоге, свяжитесь с нами и мы незамедлительно удалим её. Файлы для обмена на трекере предоставлены пользователями сайта, и администрация не несёт ответственности за их содержание. Просьба не заливать файлы, защищенные авторскими правами, а также файлы нелегального содержания!