На всех торрентах на трекере установлена скидка на скачивание в размере 100 процентов(а).
 Возможность скачивания торрента НЕ зависит от ограничений при низком ратио, низком аплоаде, требуемом ратио или требуемом аплоаде.


Начать новую тему Ответить на тему
Статистика раздачи
Размер: 5.63 ГБ | Добавлен: 10 дек 2014, 19:05 | Скачали: 198
Сидеров: 16  [0 байт/сек]    Личеров: 4  [0 байт/сек]
Пред. тема | След. тема 

Автор
Сообщение

СообщениеДобавлено: 10 дек 2014, 19:05 

Название: Игра по правилам
Оригинальное название: Fair Play
Год выпуска: 2014
Жанр: драма, спорт
Режиссер: Андреа Седлачкова
В ролях: Юдит Бардос, Анна Гейслерова, Роман Лукнар, Ева Йозефикова, Властина Сваткова, Игорь Бареш

О фильме:
Анна Моравцова профессионально занимается легкой атлетикой, а ее мать — успешная в прошлом теннисистка, и ей не понаслышке известно, что ради спорта порой приходится переступать через себя. Однажды руководство назначает Анне продолжительный курс препарата, который наращивает мышцы и способствует быстрому восстановлению организма после изнурительных тренировок. Анна во что бы то ни стало стремится попасть на Олимпиаду в Лос-Анджелесе, поэтому соглашается не задумываясь. Так или иначе, в Чехии 80-ых годов возражения не принимаются. Мать, тайно копирующая антиправительственные тексты бывшего любовника, знает об этом, как никто другой…



Выпущено: Чехия, Германия, Словакия
Продолжительность: 01:38:40
Озвучивание: Любительское (одноголосое) [PashaUp] - перевод на русский язык [sombre soul]


Формат: MKV
Качество: BDRip 720p [DON]
Видео: 6046 kb/s, 1280x536
Аудио: Russian: AC3, 448 kb/s (6 ch) / Czech: DTS, 1510 kb/s (6 ch)
Размер: 5.63 GB
Скачать: Сэмпл


General
Unique ID : 246761652415806681283278390566601911609 (0xB9A490C7FA2045A0841FC850104C6D39)
Complete name : C:UsersuserDesktopFair.Play.2014.Blu.Ray.720p.mkv
Format : Matroska
Format version : Version 4 / Version 2
File size : 5.63 GiB
Duration : 1h 38mn
Overall bit rate : 8 165 Kbps
Movie name : Release ~Relizer~
Encoded date : UTC 2014-12-10 14:48:16
Writing application : mkvmerge v7.3.0 ('Nouages') 32bit built on Oct 22 2014 18:44:01
Writing library : libebml v1.3.0 + libmatroska v1.4.1
_STATISTICS_WRITING_APP : mkvmerge v7.3.0 ('Nouages') 32bit built on Oct 22 2014 18:44:01
_STATISTICS_WRITING_DATE_UTC : 2014-12-10 14:48:16
_STATISTICS_TAGS : BPS DURATION NUMBER_OF_FRAMES NUMBER_OF_BYTES
DURATION : 01:38:36.609000000
NUMBER_OF_FRAMES : 554682
NUMBER_OF_BYTES : 1116020184

Video
ID : 1
Format : AVC
Format/Info : Advanced Video Codec
Format profile : High@L4.1
Format settings, CABAC : Yes
Format settings, ReFrames : 12 frames
Codec ID : V_MPEG4/ISO/AVC
Duration : 1h 38mn
Bit rate : 6 046 Kbps
Width : 1 280 pixels
Height : 536 pixels
Display aspect ratio : 2.40:1
Frame rate mode : Constant
Frame rate : 24.000 fps
Color space : YUV
Chroma subsampling : 4:2:0
Bit depth : 8 bits
Scan type : Progressive
Bits/(Pixel*Frame) : 0.367
Stream size : 4.17 GiB (74%)
Title : Release ~Relizer~
Writing library : x264 core 140 r2377 1ca7bb9
Encoding settings : cabac=1 / ref=12 / deblock=1:-3:-3 / analyse=0x3:0x133 / me=umh / subme=10 / psy=1 / psy_rd=1.05:0.00 / mixed_ref=1 / me_range=48 / chroma_me=1 / trellis=2 / 8x8dct=1 / cqm=0 / deadzone=21,11 / fast_pskip=0 / chroma_qp_offset=-2 / threads=12 / lookahead_threads=2 / sliced_threads=0 / nr=0 / decimate=0 / interlaced=0 / bluray_compat=0 / constrained_intra=0 / bframes=8 / b_pyramid=2 / b_adapt=2 / b_bias=0 / direct=3 / weightb=1 / open_gop=0 / weightp=2 / keyint=240 / keyint_min=24 / scenecut=40 / intra_refresh=0 / rc_lookahead=60 / rc=crf / mbtree=0 / crf=15.0 / qcomp=0.65 / qpmin=0 / qpmax=69 / qpstep=4 / vbv_maxrate=62500 / vbv_bufsize=78125 / crf_max=0.0 / nal_hrd=none / filler=0 / ip_ratio=1.20 / pb_ratio=1.10 / aq=1:0.75
Language : Czech
Default : Yes
Forced : No
_STATISTICS_WRITING_APP : mkvmerge v7.3.0 ('Nouages') 32bit built on Oct 22 2014 18:44:01
_STATISTICS_WRITING_DATE_UTC : 2014-12-10 14:48:16
_STATISTICS_TAGS : BPS DURATION NUMBER_OF_FRAMES NUMBER_OF_BYTES
DURATION : 01:38:39.584000000
NUMBER_OF_FRAMES : 142070
NUMBER_OF_BYTES : 4593501026

Audio #1
ID : 2
Format : AC-3
Format/Info : Audio Coding 3
Mode extension : CM (complete main)
Format settings, Endianness : Big
Codec ID : A_AC3
Duration : 1h 38mn
Bit rate mode : Constant
Bit rate : 448 Kbps
Channel(s) : 6 channels
Channel positions : Front: L C R, Side: L R, LFE
Sampling rate : 48.0 KHz
Bit depth : 16 bits
Compression mode : Lossy
Stream size : 316 MiB (5%)
Title : PashaUp
Language : Russian
Default : Yes
Forced : Yes

Audio #2
ID : 3
Format : DTS
Format/Info : Digital Theater Systems
Mode : 16
Format settings, Endianness : Big
Codec ID : A_DTS
Duration : 1h 38mn
Bit rate mode : Constant
Bit rate : 1 509 Kbps
Channel(s) : 6 channels
Channel positions : Front: L C R, Side: L R, LFE
Sampling rate : 48.0 KHz
Bit depth : 24 bits
Compression mode : Lossy
Stream size : 1.04 GiB (18%)
Language : Czech
Default : No
Forced : No

Menu
00:00:00.000 : cs:00:00:00.000
00:05:58.417 : cs:00:05:58.417
00:09:32.417 : cs:00:09:32.417
00:20:09.042 : cs:00:20:09.042
00:26:57.542 : cs:00:26:57.542
00:33:18.083 : cs:00:33:18.083
00:40:13.292 : cs:00:40:13.292
00:51:42.625 : cs:00:51:42.625
01:00:29.500 : cs:01:00:29.500
01:11:19.583 : cs:01:11:19.583
01:25:20.542 : cs:01:25:20.542
01:32:38.833 : cs:01:32:38.833










загрузка...
Правила, инструкции, FAQ!!!
Торрент  Добавлен [10 дек 2014, 19:05] Скачать торрент
Скачать торрент
[ Размер 14.73 КБ / Просмотров 2 ]

Статус
Проверен 
 
Размер  5.63 ГБ
Приватный: Нет (DHT включён)
.torrent скачан  198
Как залить торрент? | Как скачать Torrent? | Как смотреть и слушать онлайн?  


     Отправить личное сообщение
   
Страница 1 из 1
Показать сообщения за:  Поле сортировки  
Начать новую тему Ответить на тему

   Похожие торренты   Автор   Ответы   Просмотры   Последнее сообщение 
В этой теме нет новых непрочитанных сообщений. Скачать торрент Проверен Игра по правилам / Fair Play (2014) HDRip | L1

в форуме Драмы, Мелодрамы, Размер: 1.37 ГБ, Здоровье: 100%

Гость

0
87|0

39
2441

05 дек 2014, 21:26

Гость Перейти к последнему сообщению

В этой теме нет новых непрочитанных сообщений. Скачать торрент Большая игра / State of Play (2009) BDRip 720p | D

в форуме 720p | 1080p, Размер: 7.93 ГБ, Здоровье: ???%

Anonymous

0
0|1

28
0

15 фев 2014, 16:57

Anonymous Перейти к последнему сообщению

В этой теме нет новых непрочитанных сообщений. Скачать торрент Игра по чужим правилам / Путь к славе / Glory Road (Джеймс Гартнер / James Gartner) [2006, драма, комедия, спорт, BDRip-AVC]

в форуме Драмы, Мелодрамы, Размер: 2.27 ГБ, Здоровье: 0%

Anonymous

0
0|0

30
0

02 апр 2014, 08:23

Anonymous Перейти к последнему сообщению

В этой теме нет новых непрочитанных сообщений. Скачать торрент Игра по чужим правилам / Путь к славе / Glory Road (Джеймс Гартнер / James Gartner) [2006, драма, комедия, спорт, BDRip-AVC]

в форуме Драмы, Мелодрамы, Размер: 3.71 ГБ, Здоровье: 0%

Anonymous

0
0|0

27
0

01 апр 2014, 09:37

Anonymous Перейти к последнему сообщению

В этой теме нет новых непрочитанных сообщений. Скачать торрент Проверен Честная игра / Fair Game (1995) HDRip | D

в форуме Боевики, Размер: 1.45 ГБ, Здоровье: 100%

Гость

0
36|1

99
3

28 мар 2016, 22:41

Гость Перейти к последнему сообщению



Сейчас этот форум просматривают: нет зарегистрированных пользователей и гости: 1


Вы не можете начинать темы
Вы не можете отвечать на сообщения
Вы не можете редактировать свои сообщения
Вы не можете удалять свои сообщения
Вы не можете добавлять вложения

Перейти:  

!ВНИМАНИЕ!
 Ресурс не предоставляет электронные версии произведений, а занимается лишь коллекционированием и каталогизацией ссылок, присылаемых и публикуемых на форуме нашими читателями. Если вы являетесь правообладателем какого-либо представленного материала и не желаете чтобы ссылка на него находилась в нашем каталоге, свяжитесь с нами и мы незамедлительно удалим её. Файлы для обмена на трекере предоставлены пользователями сайта, и администрация не несёт ответственности за их содержание. Просьба не заливать файлы, защищенные авторскими правами, а также файлы нелегального содержания!