На всех торрентах на трекере установлена скидка на скачивание в размере 100 процентов(а).
 Возможность скачивания торрента НЕ зависит от ограничений при низком ратио, низком аплоаде, требуемом ратио или требуемом аплоаде.


Начать новую тему Ответить на тему
Статистика раздачи
Размер: 7.76 ГБ | Добавлен: 08 дек 2014, 18:14 | Скачали: 84
Сидеров: 21  [0 байт/сек]    Личеров: 6  [0 байт/сек]
Пред. тема | След. тема 

Автор
Сообщение

СообщениеДобавлено: 08 дек 2014, 18:14 

    Русское название: Видеодром
    Оригинальное название: Videodrome
    Год выхода: 1982
    Жанр: ужасы, фантастика, боевик
    Режиссер: Дэвид Кроненберг
    Выпущено: Канада
    Продолжительность: 01:27:22
    Перевод: Двухголосый закадровый
    В ролях: Джеймс Вудс, Соня Смитс, Дебора Харри, Питер Дворски, Лесли Карлсон, Джек Крили, Линн Горман, Джули Ханер, Райнер Шварц, Дэвид Болт


Сюжет фильма
    Телевизионный продюсер Макс Ренн, разыскивая свежее и оригинальное порно для своего кабельного канала, случайно натыкается на «Видеодром» - ведущуюся из ниоткуда передачу про секс и убийства, многократный просмотр которой разлагает не только психику, но и плоть человека...


Файл
    Качество: BDRip 1080p (исходник Blu-ray Disc)
    Видео: 1920x1040, 11824 Кбит/сек, 23,976 кадр/сек, AVC, x264, High@L4.1, 1.85:1, 0.247 Бит/[Пиксели*Кадры]
    Аудио 1: AC-3, 448 Кбит/сек, 2 канала(ов), 48,0 КГц - Двухголосый закадровый / Русский
    Аудио 2: AC-3, 448 Кбит/сек, 2 канала(ов), 48,0 КГц - Оригинал / Английский
    Субтитры: Русские | Полные, Английские | Полные
    Форсированные субтитры: Нет
    Чаптеры (Главы): Есть




Сэмпл
Автор Рипа:


Format : Matroska
Format version : Version 2
File size : 7.76 GiB
Duration : 1h 27mn
Overall bit rate : 12.7 Mbps
Movie name : Видеодром.(1982).BDRip.1080p.[envy]
Encoded date : UTC 2014-12-08 08:13:27
Writing application : mkvmerge v5.8.0 ('No Sleep / Pillow') built on Sep 2 2012 15:37:04
Writing library : libebml v1.2.3 + libmatroska v1.3.0

Video
ID : 1
Format : AVC
Format/Info : Advanced Video Codec
Format profile : High@L4.1
Format settings, CABAC : Yes
Format settings, ReFrames : 4 frames
Codec ID : V_MPEG4/ISO/AVC
Duration : 1h 27mn
Bit rate : 11.8 Mbps
Width : 1 920 pixels
Height : 1 040 pixels
Display aspect ratio : 1.85:1
Frame rate mode : Constant
Frame rate : 23.976 fps
Color space : YUV
Chroma subsampling : 4:2:0
Bit depth : 8 bits
Scan type : Progressive
Bits/(Pixel*Frame) : 0.247
Stream size : 7.06 GiB (91%)
Title : Видеодром.(1982).BDRip.1080p.[envy]
Writing library : x264 core 142 r2491 24e4fed
Encoding settings : cabac=1 / ref=4 / deblock=1:-3:-3 / analyse=0x3:0x113 / me=umh / subme=11 / psy=1 / psy_rd=1.00:0.00 / mixed_ref=1 / me_range=32 / chroma_me=1 / trellis=2 / 8x8dct=1 / cqm=0 / deadzone=21,11 / fast_pskip=0 / chroma_qp_offset=-2 / threads=12 / lookahead_threads=1 / sliced_threads=0 / nr=0 / decimate=1 / interlaced=0 / bluray_compat=0 / constrained_intra=0 / bframes=5 / b_pyramid=2 / b_adapt=2 / b_bias=0 / direct=3 / weightb=1 / open_gop=0 / weightp=2 / keyint=240 / keyint_min=23 / scenecut=40 / intra_refresh=0 / rc=2pass / mbtree=0 / bitrate=11824 / ratetol=2.0 / qcomp=0.60 / qpmin=0 / qpmax=69 / qpstep=4 / cplxblur=20.0 / qblur=0.5 / ip_ratio=1.40 / pb_ratio=1.30 / aq=2:1.00
Language : English
Default : Yes
Forced : No

Audio #1
ID : 2
Format : AC-3
Format/Info : Audio Coding 3
Mode extension : CM (complete main)
Format settings, Endianness : Big
Codec ID : A_AC3
Duration : 1h 27mn
Bit rate mode : Constant
Bit rate : 448 Kbps
Channel(s) : 2 channels
Channel positions : Front: L R
Sampling rate : 48.0 KHz
Bit depth : 16 bits
Compression mode : Lossy
Stream size : 280 MiB (4%)
Title : DVO
Language : Russian
Default : Yes
Forced : No

Audio #2
ID : 3
Format : AC-3
Format/Info : Audio Coding 3
Mode extension : CM (complete main)
Format settings, Endianness : Big
Codec ID : A_AC3
Duration : 1h 27mn
Bit rate mode : Constant
Bit rate : 448 Kbps
Channel(s) : 2 channels
Channel positions : Front: L R
Sampling rate : 48.0 KHz
Bit depth : 16 bits
Compression mode : Lossy
Stream size : 280 MiB (4%)
Title : Eng
Language : English
Default : No
Forced : No

Text #1
ID : 4
Format : UTF-8
Codec ID : S_TEXT/UTF8
Codec ID/Info : UTF-8 Plain Text
Title : full
Language : Russian
Default : No
Forced : No

Text #2
ID : 5
Format : UTF-8
Codec ID : S_TEXT/UTF8
Codec ID/Info : UTF-8 Plain Text
Title : full
Language : English
Default : No
Forced : No

Menu
00:00:00.000 : :Chapter 01
00:05:44.427 : :Chapter 02
00:12:39.425 : :Chapter 03
00:17:25.002 : :Chapter 04
00:20:04.661 : :Chapter 05
00:26:03.770 : :Chapter 06
00:30:56.771 : :Chapter 07
00:37:36.045 : :Chapter 08
00:41:17.391 : :Chapter 09
00:46:29.578 : :Chapter 10
00:53:13.857 : :Chapter 11
00:57:15.265 : :Chapter 12
01:04:47.592 : :Chapter 13
01:07:20.578 : :Chapter 14
01:12:04.361 : :Chapter 15
01:16:39.886 : :Chapter 16
01:19:49.993 : :Chapter 17
01:25:15.735 : :Chapter 18

загрузка...
Правила, инструкции, FAQ!!!
Торрент  Добавлен [08 дек 2014, 18:14] Скачать торрент
Скачать торрент
[ Размер 39.36 КБ / Просмотров 7 ]

Статус
Проверен 
 
Размер  7.76 ГБ
Приватный: Нет (DHT включён)
.torrent скачан  84
Как залить торрент? | Как скачать Torrent? | Как смотреть и слушать онлайн?  


     Отправить личное сообщение
   
Страница 1 из 1
Показать сообщения за:  Поле сортировки  
Начать новую тему Ответить на тему

   Похожие торренты   Автор   Ответы   Просмотры   Последнее сообщение 
В этой теме нет новых непрочитанных сообщений. Скачать торрент Проверен Полтергейст / Poltergeist (1982) BDRip 1080p

в форуме 720p | 1080p, Размер: 7.76 ГБ, Здоровье: 47%

Anonymous

0
29|61

141
24

22 июн 2015, 18:05

Anonymous Перейти к последнему сообщению

В этой теме нет новых непрочитанных сообщений. Скачать торрент Проверен Покровские ворота (Михаил Козаков) [1982, СССР, Комедия, BDRip 1080p]

в форуме Наше кино (HD Video), Размер: 12.97 ГБ, Здоровье: 100%

Anonymous

0
34|13

235
0

12 апр 2015, 15:07

Anonymous Перейти к последнему сообщению

В этой теме нет новых непрочитанных сообщений. Скачать торрент Проверен The Rolling Stones - From The Vault - Live in Leeds 1982 [2015, Rock, BDRip 1080p]

в форуме Концерты (HD-Video), Размер: 12.5 ГБ, Здоровье: 100%

Anonymous

0
6|2

22
1

23 окт 2016, 19:50

Anonymous Перейти к последнему сообщению

В этой теме нет новых непрочитанных сообщений. Скачать торрент Проверен The Who - Live At Shea Stadium 1982 [2015, Rock, Hard Rock, Art Rock, BDRip 1080p]

в форуме Концерты (HD-Video), Размер: 12.06 ГБ, Здоровье: 100%

Anonymous

0
3|2

2
1

23 окт 2016, 14:41

Anonymous Перейти к последнему сообщению

В этой теме нет новых непрочитанных сообщений. Скачать торрент Проверен Bon Jovi - When We Were Beautiful (Bonus) BDrip 1080p [2009, Rock, Documentary, BDRip]

в форуме Концерты (HD-Video), Размер: 4.09 ГБ, Здоровье: 100%

Anonymous

0
2|1

0
0

23 окт 2016, 14:23

Anonymous Перейти к последнему сообщению



Сейчас этот форум просматривают: нет зарегистрированных пользователей и гости: 2


Вы не можете начинать темы
Вы не можете отвечать на сообщения
Вы не можете редактировать свои сообщения
Вы не можете удалять свои сообщения
Вы не можете добавлять вложения

Перейти:  

!ВНИМАНИЕ!
 Ресурс не предоставляет электронные версии произведений, а занимается лишь коллекционированием и каталогизацией ссылок, присылаемых и публикуемых на форуме нашими читателями. Если вы являетесь правообладателем какого-либо представленного материала и не желаете чтобы ссылка на него находилась в нашем каталоге, свяжитесь с нами и мы незамедлительно удалим её. Файлы для обмена на трекере предоставлены пользователями сайта, и администрация не несёт ответственности за их содержание. Просьба не заливать файлы, защищенные авторскими правами, а также файлы нелегального содержания!