На всех торрентах на трекере установлена скидка на скачивание в размере 100 процентов(а).
 Возможность скачивания торрента НЕ зависит от ограничений при низком ратио, низком аплоаде, требуемом ратио или требуемом аплоаде.


Начать новую тему Ответить на тему
Статистика раздачи
Размер: 7.94 ГБ | Добавлен: 08 дек 2014, 18:11 | Скачали: 205
Сидеров: 114  [0 байт/сек]    Личеров: 6  [0 байт/сек]
Пред. тема | След. тема 

Автор
Сообщение

СообщениеДобавлено: 08 дек 2014, 18:11 

Название: Особое мнение
Оригинальное название: Minority Report
Год выхода: 2002
Жанр: фантастика, боевик, триллер, криминал, детектив
Режиссер: Стивен Спилберг
В ролях: Том Круз, Колин Фаррелл, Макс фон Сюдов, Саманта Мортон, Кэтрин Моррис, Тим Блейк Нельсон, Петер Стормаре, Лоис Смит, Пэтрик Килпэтрик, Стив Харрис

О фильме: 2054 год. Уже шесть лет существует особый предпреступный отдел. На основе психических технологий разработана экспериментальная программа, с помощью которой работники отдела могут узнать о еще не совершенном убийстве и арестовать подозреваемого еще до совершения им преступления.

Такая система осуждения преступников и предотвращения преступлений получает все большее распространение. Эта система работает идеально, но самое страшное начинается тогда, когда ты сам оказываешься обвиненным в еще не совершенном убийстве.

Однажды руководитель предпреступного отдела Джон Андертон сам оказывается подозреваемым преступником. Он обвиняется в том, что совершит убийство человека, которого пока он даже не знает.

Джон не верит в это, но теперь он вынужден сам скрываться от своих коллег. Единственная для него возможность доказать свою невиновность — это показать, что новая программа допускает ошибки и отнюдь не так идеальна, как этого хотелось бы многим…


Выпущено: Twentieth Century Fox Film Corporation
Продолжительность: 02:25:10
Перевод: Дублированный


Кодек: x264
Качество: BDRip (источник: Blu-ray Disc)
Видео: 1920x800 (2,40:1), 23.976 fps, 7384 kbps
Звук: 48 kHz, AC-3, 6 ch, 448 kbps
Субтитры: Русские, Английские
Скачать: сэмпл

Скриншоты

Общее
Уникальный идентификатор : 205856843623975291777844254712329406569 (0x9ADE96001D48B618812B4144B9BC0869)
Полное имя : Minority.Report.2002.BDRip.1080p.Rus.mkv
Формат : Matroska
Версия формата : Version 2
Размер файла : 7,94 Гбайт
Продолжительность : 2 ч. 25 м.
Общий поток : 7830 Кбит/сек
Дата кодирования : UTC 2011-09-05 08:08:17
Программа кодирования : mkvmerge v4.0.0 ('The Stars were mine') сборка от Jun 6 2010 16:18:42
Библиотека кодирования : libebml v1.0.0 + libmatroska v1.0.0

Видео
Идентификатор : 1
Формат : AVC
Формат/Информация : Advanced Video Codec
Профиль формата : High@L4.1
Параметр CABAC формата : Да
Параметр ReFrames формата : 5 кадров
Идентификатор кодека : V_MPEG4/ISO/AVC
Продолжительность : 2 ч. 25 м.
Битрейт : 7384 Кбит/сек
Ширина : 1920 пикселей
Высота : 800 пикселей
Соотношение сторон : 2,40:1
Частота кадров : 23,976 кадра/сек
Цветовое пространство : YUV
Субдискретизация насыщенности : 4:2:0
Битовая глубина : 8 бит
Тип развёртки : Прогрессивная
Бит/(Пиксели*Кадры) : 0.201
Размер потока : 7,33 Гбайт (92%)
Библиотека кодирования : x264 core 116 r2074 2641b9e
Настройки программы : cabac=1 / ref=5 / deblock=1:0:0 / analyse=0x3:0x133 / me=umh / subme=10 / psy=1 / psy_rd=1.00:0.10 / mixed_ref=1 / me_range=32 / chroma_me=1 / trellis=2 / 8x8dct=1 / cqm=0 / deadzone=21,11 / fast_pskip=0 / chroma_qp_offset=-3 / threads=12 / sliced_threads=0 / nr=0 / decimate=1 / interlaced=0 / bluray_compat=0 / constrained_intra=0 / bframes=5 / b_pyramid=2 / b_adapt=2 / b_bias=0 / direct=3 / weightb=1 / open_gop=0 / weightp=2 / keyint=250 / keyint_min=23 / scenecut=40 / intra_refresh=0 / rc_lookahead=60 / rc=2pass / mbtree=1 / bitrate=7384 / ratetol=1.0 / qcomp=0.60 / qpmin=0 / qpmax=69 / qpstep=4 / cplxblur=20.0 / qblur=0.5 / ip_ratio=1.40 / aq=1:1.00
Язык : English

Аудио
Идентификатор : 2
Формат : AC-3
Формат/Информация : Audio Coding 3
Расширение режима : CM (complete main)
Идентификатор кодека : A_AC3
Продолжительность : 2 ч. 25 м.
Вид битрейта : Постоянный
Битрейт : 448 Кбит/сек
Каналы : 6 каналов
Расположение каналов : Front: L C R, Side: L R, LFE
Частота : 48,0 КГц
Битовая глубина : 16 бит
Метод сжатия : С потерями
Размер потока : 465 Мбайт (6%)
Язык : Russian

Текст #1
Идентификатор : 3
Формат : UTF-8
Идентификатор кодека : S_TEXT/UTF8
Идентификатор кодека/Информация : UTF-8 Plain Text
Язык : Russian

Текст #2
Идентификатор : 4
Формат : UTF-8
Идентификатор кодека : S_TEXT/UTF8
Идентификатор кодека/Информация : UTF-8 Plain Text
Язык : English

Меню
00:00:00.000 : :Chapter 01
00:06:47.073 : :Chapter 02
00:14:49.889 : :Chapter 03
00:21:13.021 : :Chapter 04
00:24:43.690 : :Chapter 05
00:29:46.034 : :Chapter 06
00:37:09.518 : :Chapter 07
00:42:42.476 : :Chapter 08
00:51:41.973 : :Chapter 09
00:55:18.606 : :Chapter 10
00:59:57.385 : :Chapter 11
01:05:10.907 : :Chapter 12
01:09:41.927 : :Chapter 13
01:17:00.657 : :Chapter 14
01:22:21.561 : :Chapter 15
01:27:57.897 : :Chapter 16
01:35:42.445 : :Chapter 17
01:39:08.776 : :Chapter 18
01:49:06.206 : :Chapter 19
01:54:02.001 : :Chapter 20
02:01:28.531 : :Chapter 21
02:06:43.095 : :Chapter 22
02:13:11.817 : :Chapter 23
02:15:40.632 : :Chapter 24
загрузка...
Правила, инструкции, FAQ!!!
Торрент  Добавлен [08 дек 2014, 18:11] Скачать торрент
Скачать торрент
[ Размер 40.26 КБ / Просмотров 36 ]

Статус
Проверен 
 
Размер  7.94 ГБ
Приватный: Нет (DHT включён)
.torrent скачан  205
Как залить торрент? | Как скачать Torrent? | Как смотреть и слушать онлайн?  


     Отправить личное сообщение
   
Страница 1 из 1
Показать сообщения за:  Поле сортировки  
Начать новую тему Ответить на тему

   Похожие торренты   Автор   Ответы   Просмотры   Последнее сообщение 
В этой теме нет новых непрочитанных сообщений. Скачать торрент Проверен Особое мнение / Minority Report (2002) BDRip 720p

в форуме 720p | 1080p, Размер: 12.31 ГБ, Здоровье: 100%

Гость

0
70|45

90
136

08 дек 2014, 18:09

Гость Перейти к последнему сообщению

В этой теме нет новых непрочитанных сообщений. Скачать торрент Проверен Особое мнение / Minority Report (Стивен Спилберг / Steven Spielberg) [2002 г., фантастика, боевик, триллер, BDRip, 480p] DUB, Original + sub(rus, eng)

в форуме Фильмы для iPod, iPhone, iPad, Размер: 2.05 ГБ, Здоровье: 100%

Гость

0
1|1

34
0

11 май 2015, 01:37

Гость Перейти к последнему сообщению

В этой теме нет новых непрочитанных сообщений. Скачать торрент Проверен [iPod] Особое мнение / Minority Report (Стивен Спилберг) [2002 г., фантастика, боевик, триллер, детектив, DVDRip]

в форуме Фильмы для iPod, iPhone, iPad, Размер: 537.78 МБ, Здоровье: 100%

Anonymous

0
1|0

28
0

14 май 2015, 00:03

Anonymous Перейти к последнему сообщению

В этой теме нет новых непрочитанных сообщений. Скачать торрент Особое мнение / Minority report (Стивен Спилберг / Steven Spielberg) [2002 г., Фантастика, боевик, триллер, HDRip-AVC]

в форуме Фантастика, Фэнтези, Размер: 2.18 ГБ, Здоровье: 100%

Anonymous

0
37|12

38
0

22 апр 2014, 11:39

Anonymous Перейти к последнему сообщению

В этой теме нет новых непрочитанных сообщений. Скачать торрент Проверен Дик Филип - Особое мнение [Евгений Соколов (ЛИ), 2013 г., 128 kbps, MP3]

в форуме Зарубежная фантастика, фэнтези, мистика, ужасы, Размер: 106.89 МБ, Здоровье: 0%

Anonymous

0
0|0

0
0

11 сен 2016, 11:34

Anonymous Перейти к последнему сообщению



Сейчас этот форум просматривают: нет зарегистрированных пользователей и гости: 3


Вы не можете начинать темы
Вы не можете отвечать на сообщения
Вы не можете редактировать свои сообщения
Вы не можете удалять свои сообщения
Вы не можете добавлять вложения

Перейти:  

!ВНИМАНИЕ!
 Ресурс не предоставляет электронные версии произведений, а занимается лишь коллекционированием и каталогизацией ссылок, присылаемых и публикуемых на форуме нашими читателями. Если вы являетесь правообладателем какого-либо представленного материала и не желаете чтобы ссылка на него находилась в нашем каталоге, свяжитесь с нами и мы незамедлительно удалим её. Файлы для обмена на трекере предоставлены пользователями сайта, и администрация не несёт ответственности за их содержание. Просьба не заливать файлы, защищенные авторскими правами, а также файлы нелегального содержания!