На всех торрентах на трекере установлена скидка на скачивание в размере 100 процентов(а).
 Возможность скачивания торрента НЕ зависит от ограничений при низком ратио, низком аплоаде, требуемом ратио или требуемом аплоаде.


Начать новую тему Ответить на тему
Статистика раздачи
Размер: 12.31 ГБ | Добавлен: 08 дек 2014, 18:09 | Скачали: 136
Сидеров: 70  [0 байт/сек]    Личеров: 45  [0 байт/сек]
Пред. тема | След. тема 

Автор
Сообщение

СообщениеДобавлено: 08 дек 2014, 18:09 

Год выпуска: 2002
Производство: USA / Twentieth Century Fox Film Corporation, DreamWorks SKG, Cruise/Wagner Productions
Жанр: фантастика, боевик, триллер, детектив

Режиссер: Стивен Спилберг
Актеры: Том Круз, Макс фон Сюдов, Саманта Мортон, Колин Фаррелл, Кэтрин Моррис, Тим Блейк Нельсон, Петер Стормаре, Стив Харрис, Нил МакДонаф, Пэтрик Килпэтрик

Описание фильма: 2054 год. Уже шесть лет существует особый предпреступный отдел. На основе психических технологий разработана экспериментальная программа, с помощью которой работники отдела могут узнать о еще не совершенном убийстве и арестовать подозреваемого еще до совершения им преступления.

Такая система осуждения преступников и предотвращения преступлений получает все большее распространение. Эта система работает идеально, но самое страшное начинается тогда, когда ты сам оказываешься обвиненным в еще не совершенном убийстве.

Однажды руководитель предпреступного отдела Джон Андертон сам оказывается подозреваемым преступником. Он обвиняется в том, что совершит убийство человека, которого пока он даже не знает.

Джон не верит в это, но теперь он вынужден сам скрываться от своих коллег. Единственная для него возможность доказать свою невиновность — это показать, что новая программа допускает ошибки и отнюдь не так идеальна, как этого хотелось бы многим…

Перевод: профессиональный (полное дублирование), авторский (одноголосый закадровый)
Вид субтитров: вшитые, отключаемые
Язык субтитров: русские (SRT), английские (ASS)



Продолжительность: 02:25:15
Качество: BDRip (720p)

Видео: MPEG-4 AVC/H.264, 1280 x 534 (2,40:1), 8 103 kbps, 23.976 fps, 0.494 b/px
Аудио # 1: DTS, 6 ch, 768 kbps, 48 000 Hz [дублированный (Blu-Ray CEE)]
Аудио # 2: DTS, 6 ch, 1509 kbps, 48 000 Hz [одноголосый закадровый (А.Гаврилов)]
Аудио # 3: DTS, 6 ch, 1509 kbps, 48 000 Hz [оригинальный]

Общее
Уникальный идентификатор : 249091194894054422682377416011054666978 (0xBB653817C98D896F95FC761A599D54E2)
Полное имя : D:[2002] Minority Report [BDRip] [720p].mkv
Формат : Matroska
Версия формата : Version 4 / Version 2
Размер файла : 12,3 Гбайт
Продолжительность : 2 ч. 25 м.
Общий поток : 12,1 Мбит/сек
Название фильма : Особое мнение / Minority Report (2002) BDRip [720p]
Дата кодирования : UTC 2014-12-04 10:19:53
Программа кодирования : mkvmerge v7.2.0 ('On Every Street') 32bit built on Sep 13 2014 15:42:11
Библиотека кодирования : libebml v1.3.0 + libmatroska v1.4.1
Attachements : CronosPro-Bold.ttf / CronosPro-Semibold.ttf / CronosPro-SemiboldIt.ttf
DURATION : 02:15:31.410000000
NUMBER_OF_FRAMES : 1585
NUMBER_OF_BYTES : 111995
_STATISTICS_WRITING_APP : mkvmerge v7.2.0 ('On Every Street') 32bit built on Sep 13 2014 15:42:11
_STATISTICS_WRITING_DATE_UTC : 2014-12-04 10:19:53
_STATISTICS_TAGS : BPS DURATION NUMBER_OF_FRAMES NUMBER_OF_BYTES

Видео
Идентификатор : 1
Формат : AVC
Формат/Информация : Advanced Video Codec
Профиль формата : High@L4.1
Параметр CABAC формата : Да
Параметр ReFrames формата : 7 кадров
Идентификатор кодека : V_MPEG4/ISO/AVC
Продолжительность : 2 ч. 25 м.
Битрейт : 8103 Кбит/сек
Ширина : 1280 пикселей
Высота : 534 пикселя
Соотношение сторон : 2,40:1
Режим частоты кадров : Постоянный
Частота кадров : 23,976 кадра/сек
Цветовое пространство : YUV
Субдискретизация насыщенности : 4:2:0
Битовая глубина : 8 бит
Тип развёртки : Прогрессивная
Бит/(Пиксели*Кадры) : 0.494
Размер потока : 8,22 Гбайт (67%)
Заголовок : [2002] Особое мнение / Minority Report [BDRip] [720p]
Язык : English
Default : Да
Forced : Нет
DURATION : 02:25:15.325000000
NUMBER_OF_FRAMES : 208959
NUMBER_OF_BYTES : 9087279765
_STATISTICS_WRITING_APP : mkvmerge v7.2.0 ('On Every Street') 32bit built on Sep 13 2014 15:42:11
_STATISTICS_WRITING_DATE_UTC : 2014-12-04 10:19:53
_STATISTICS_TAGS : BPS DURATION NUMBER_OF_FRAMES NUMBER_OF_BYTES

Аудио #1
Идентификатор : 2
Формат : DTS
Формат/Информация : Digital Theater Systems
Режим : 16
Параметр Endianness формата : Big
Идентификатор кодека : A_DTS
Продолжительность : 2 ч. 25 м.
Вид битрейта : Постоянный
Битрейт : 768 Кбит/сек
Каналы : 6 каналов
Расположение каналов : Front: L C R, Side: L R, LFE
Частота : 48,0 КГц
Битовая глубина : 24 бит
Метод сжатия : С потерями
Размер потока : 798 Мбайт (6%)
Заголовок : Дублированный (Blu-Ray CEE)
Язык : Russian
Default : Да
Forced : Нет

Аудио #2
Идентификатор : 3
Формат : DTS
Формат/Информация : Digital Theater Systems
Режим : 16
Параметр Endianness формата : Big
Идентификатор кодека : A_DTS
Продолжительность : 2 ч. 25 м.
Вид битрейта : Постоянный
Битрейт : 1509 Кбит/сек
Каналы : 6 каналов
Расположение каналов : Front: L C R, Side: L R, LFE
Частота : 48,0 КГц
Битовая глубина : 24 бит
Метод сжатия : С потерями
Размер потока : 1,53 Гбайт (12%)
Заголовок : Одноголосый закадровый (А.Гаврилов)
Язык : Russian
Default : Нет
Forced : Нет

Аудио #3
Идентификатор : 4
Формат : DTS
Формат/Информация : Digital Theater Systems
Режим : 16
Параметр Endianness формата : Big
Идентификатор кодека : A_DTS
Продолжительность : 2 ч. 25 м.
Вид битрейта : Постоянный
Битрейт : 1509 Кбит/сек
Каналы : 6 каналов
Расположение каналов : Front: L C R, Side: L R, LFE
Частота : 48,0 КГц
Битовая глубина : 24 бит
Метод сжатия : С потерями
Размер потока : 1,53 Гбайт (12%)
Заголовок : Оригинальный
Язык : English
Default : Нет
Forced : Нет

Текст #1
Идентификатор : 5
Формат : UTF-8
Идентификатор кодека : S_TEXT/UTF8
Идентификатор кодека/Информация : UTF-8 Plain Text
Заголовок : Russian
Язык : Russian
Default : Нет
Forced : Нет

Текст #2
Идентификатор : 6
Формат : ASS
Идентификатор кодека : S_TEXT/ASS
Идентификатор кодека/Информация : Advanced Sub Station Alpha
Метод сжатия : Без потерь
Заголовок : English
Язык : English
Default : Нет
Forced : Нет

Меню
00:00:00.000 : en:1. Red Ball/Main Title
00:06:47.073 : en:2. The Arrest of Howard Marks
00:14:49.889 : en:3. Clarity
00:21:13.022 : en:4. Pre-Determination
00:24:43.691 : en:5. Can You See?
00:29:46.034 : en:6. Ann Lively
00:37:09.519 : en:7. Case 1109
00:42:42.477 : en:8. Everybody Runs
00:51:41.974 : en:9. Auto Assembly Line
00:55:18.607 : en:10. History of the Precogs
00:59:57.385 : en:11. Minority Reports
01:04:04.591 : en:12. Eyeworks
01:09:41.928 : en:13. Public Pool
01:17:00.658 : en:14. The Spyders
01:22:21.562 : en:15. Agatha Is the Key
01:27:57.898 : en:16. Downloading Agatha
01:35:42.445 : en:17. Balloon Man
01:39:08.776 : en:18. Leo Crow
01:49:06.206 : en:19. An Echo
01:54:02.002 : en:20. So Much Love in This House
02:01:28.531 : en:21. All Thumbs
02:06:43.095 : en:22. A World Without Murder
02:13:11.817 : en:23. Forgive Me, John
02:15:40.632 : en:24. In Peace/End Credits
загрузка...
Правила, инструкции, FAQ!!!
Торрент  Добавлен [08 дек 2014, 18:09] Скачать торрент
Скачать торрент
[ Размер 31.56 КБ / Просмотров 22 ]

Статус
Проверен 
 
Размер  12.31 ГБ
Приватный: Нет (DHT включён)
.torrent скачан  136
Как залить торрент? | Как скачать Torrent? | Как смотреть и слушать онлайн?  


     Отправить личное сообщение
   
Страница 1 из 1
Показать сообщения за:  Поле сортировки  
Начать новую тему Ответить на тему

   Похожие торренты   Автор   Ответы   Просмотры   Последнее сообщение 
В этой теме нет новых непрочитанных сообщений. Скачать торрент Проверен Особое мнение / Minority Report (2002) BDRip 1080p

в форуме 720p | 1080p, Размер: 7.94 ГБ, Здоровье: 100%

Гость

0
114|6

128
205

08 дек 2014, 18:11

Гость Перейти к последнему сообщению

В этой теме нет новых непрочитанных сообщений. Скачать торрент Проверен Особое мнение / Minority Report (Стивен Спилберг / Steven Spielberg) [2002 г., фантастика, боевик, триллер, BDRip, 480p] DUB, Original + sub(rus, eng)

в форуме Фильмы для iPod, iPhone, iPad, Размер: 2.05 ГБ, Здоровье: 100%

Гость

0
1|1

34
0

11 май 2015, 01:37

Гость Перейти к последнему сообщению

В этой теме нет новых непрочитанных сообщений. Скачать торрент Проверен [iPod] Особое мнение / Minority Report (Стивен Спилберг) [2002 г., фантастика, боевик, триллер, детектив, DVDRip]

в форуме Фильмы для iPod, iPhone, iPad, Размер: 537.78 МБ, Здоровье: 100%

Anonymous

0
1|0

28
0

14 май 2015, 00:03

Anonymous Перейти к последнему сообщению

В этой теме нет новых непрочитанных сообщений. Скачать торрент Особое мнение / Minority report (Стивен Спилберг / Steven Spielberg) [2002 г., Фантастика, боевик, триллер, HDRip-AVC]

в форуме Фантастика, Фэнтези, Размер: 2.18 ГБ, Здоровье: 100%

Anonymous

0
37|12

37
0

22 апр 2014, 11:39

Anonymous Перейти к последнему сообщению

В этой теме нет новых непрочитанных сообщений. Скачать торрент Проверен Дик Филип - Особое мнение [Евгений Соколов (ЛИ), 2013 г., 128 kbps, MP3]

в форуме Зарубежная фантастика, фэнтези, мистика, ужасы, Размер: 106.89 МБ, Здоровье: 0%

Anonymous

0
0|0

0
0

11 сен 2016, 11:34

Anonymous Перейти к последнему сообщению



Сейчас этот форум просматривают: нет зарегистрированных пользователей и гости: 4


Вы не можете начинать темы
Вы не можете отвечать на сообщения
Вы не можете редактировать свои сообщения
Вы не можете удалять свои сообщения
Вы не можете добавлять вложения

Перейти:  

!ВНИМАНИЕ!
 Ресурс не предоставляет электронные версии произведений, а занимается лишь коллекционированием и каталогизацией ссылок, присылаемых и публикуемых на форуме нашими читателями. Если вы являетесь правообладателем какого-либо представленного материала и не желаете чтобы ссылка на него находилась в нашем каталоге, свяжитесь с нами и мы незамедлительно удалим её. Файлы для обмена на трекере предоставлены пользователями сайта, и администрация не несёт ответственности за их содержание. Просьба не заливать файлы, защищенные авторскими правами, а также файлы нелегального содержания!