На всех торрентах на трекере установлена скидка на скачивание в размере 100 процентов(а).
 Возможность скачивания торрента НЕ зависит от ограничений при низком ратио, низком аплоаде, требуемом ратио или требуемом аплоаде.


Начать новую тему Ответить на тему
Статистика раздачи
Размер: 9.75 ГБ | Добавлен: 07 дек 2014, 17:59 | Скачали: 3
Сидеров: 1  [0 байт/сек]    Личеров: 1  [0 байт/сек]
Пред. тема | След. тема 

Автор
Сообщение

СообщениеДобавлено: 07 дек 2014, 17:59 

Год выпуска: 1983
Страна: США
Производство: Zoetrope Studios
Слоган: «S.E. Hinton's classic novel about youth»
Жанр: драма, криминал
Продолжительность: 01:54:56
Перевод:
Профессиональный (полное дублирование) Blu-ray EUR
Авторский (Андрей Гаврилов)
Авторский (Сергей Визгунов)
Авторский (Юрий Немахов)
Субтитры: Russian, English SDH, English (Coppola's commentary), English (Actors' commentary)

Режиссер: Френсис Форд Коппола / Francis Ford Coppola
Сценарий: Кэтлин Роуэлл / Kathleen Rowell, С.Э. Хинтон / S.E. Hinton
Продюсер: Грэй Фредериксон / Gray Frederickson, Фред Роос / Fred Roos, Ким Обри / Kim Aubry, Джан-Карло Коппола / Gian-Carlo Coppola
Оператор: Стивен Х. Бёрум / Stephen H. Burum
Композитор: Кармине Коппола / Carmine Coppola

В ролях:

Си Томас Хауэлл (Ponyboy Curtis), Ральф Маччио (Johnny Cade), Дайан Лэйн (Cherry Valance), Патрик Суэйзи (Darrel Curtis), Роб Лоу (Sodapop Curtis), Мэтт Диллон (Dallas Winston), Эмилио Эстевес (Two-Bit Matthews), Том Круз (Steve Randle), Гленн Уитроу (Tim Shepard), Лейф Гаррет (Bob Sheldon), Даррен Далтон (Randy Anderson), Мишель Майринк (Marcia)

Дублёры: Антон Колесников (Johnny Cade), Ирина Киреева (Cherry Valance), Антон Эльдаров (Darrel Curtis), Прохор Чеховской (Sodapop Curtis), Александр Гаврилин (Dallas Winston), Данил Щебланов (Steve Randle), Диомид Виноградов (Tim Shepard), Сергей Смирнов (Bob Sheldon), Вероника Саркисова (Marcia), Станислав Стрелков (Jerry; Store Clerk)

Бюджет: $10 000 000
Сборы в США: $25 697 647

Мировая премьера: 25 марта 1983

Описание: Маленький городок в штате Оклахома, 60-е годы. В извечном конфликте противостоят друг другу банды подростков, разделенных по имущественному признаку.

Рейтинг:



MPAA: PG-13 - Детям до 13 лет просмотр не желателен

Формат: Matroska
Источник: The.Outsiders.1983.1080p.BD-Remux
Видео: 1280x534 at 23.976 fps, x264@L4.1, ~4730 kbps avg
Аудио#1: Russian: 48 kHz, DTS, 2/0 (L,R) ch, ~755.00 kbps avg |Дубляж, Blu-ray EUR|
Аудио#2: Russian: 48 kHz, DTS, 3/2 (L,C,R,l,r) + LFE ch, ~1509.00 kbps avg |Авторский, А.Гаврилов|
Аудио#3: Russian: 48 kHz, DTS, 3/2 (L,C,R,l,r) + LFE ch, ~1509.00 kbps avg |Авторский, С.Визгунов|
Аудио#4: Russian: 48 kHz, DTS, 3/2 (L,C,R,l,r) + LFE ch, ~1509.00 kbps avg |Авторский, Ю.Немахов|
Аудио#5: English: 48 kHz, DTS, 3/2 (L,C,R,l,r) + LFE ch, ~1509.00 kbps avg
Аудио#6: English: 48 kHz, AC3, 2/0 (L,R) ch, ~192.00 kbps avg |Coppola's Commentary|
Аудио#7: English: 48 kHz, AC3, 2/0 (L,R) ch, ~192.00 kbps avg |Actors' Commentary|

Фильм снят по мотивам романа С. Э. Хинтон «Изгои» (The Outsiders, 1967).
Версия 2005 года имела хронометраж 114 минут.
Для Копполы этот низкобюджетный и простой по стилистике фильм стал передышкой после оглушительного провала фильма-феерии «От всего сердца». Для группы юных актеров, которых мэтр пригласил в картину, - фильм стал успешным стартом в большое кино.
[*]Смерть героя Мэтта Диллона в точности напоминает смерть его же героя из фильма «Через край» (1979).
General
Unique ID : 197292168687341442700775951274232088556 (0x946D16EC8A165C4CB8E6D2DEC24D87EC)
Complete name : The.Outsiders.1983.720p.BluRay.4xRus.3xEng.HDCLUB.mkv
Format : Matroska
Format version : Version 2
File size : 9.75 GiB
Duration : 1h 54mn
Overall bit rate : 12.1 Mbps
Movie name : The Outsiders (1983) - Release for HDCLUB
Encoded date : UTC 2014-09-03 14:27:46
Writing application : mkvmerge v5.7.0 ('The Whirlwind') built on Jul 8 2012 20:08:51
Writing library : libebml v1.2.3 + libmatroska v1.3.0

Video
ID : 1
Format : AVC
Format/Info : Advanced Video Codec
Format profile : High@L4.1
Format settings, CABAC : Yes
Format settings, ReFrames : 12 frames
Codec ID : V_MPEG4/ISO/AVC
Duration : 1h 54mn
Bit rate : 4 720 Kbps
Width : 1 280 pixels
Height : 534 pixels
Display aspect ratio : 2.40:1
Frame rate mode : Constant
Frame rate : 23.976 fps
Color space : YUV
Chroma subsampling : 4:2:0
Bit depth : 8 bits
Scan type : Progressive
Bits/(Pixel*Frame) : 0.288
Stream size : 3.79 GiB (39%)
Writing library : x264 core 125 r2208kMod d9d2288
Encoding settings : cabac=1 / ref=12 / deblock=1:-3:-3 / analyse=0x3:0x113 / me=umh / subme=11 / psy=1 / fade_compensate=0.00 / psy_rd=1.10:0.00 / mixed_ref=1 / me_range=16 / chroma_me=1 / trellis=2 / 8x8dct=1 / cqm=0 / deadzone=21,11 / fast_pskip=0 / chroma_qp_offset=-2 / threads=6 / lookahead_threads=1 / sliced_threads=0 / nr=0 / decimate=0 / interlaced=0 / bluray_compat=0 / constrained_intra=0 / bframes=8 / b_pyramid=2 / b_adapt=2 / b_bias=0 / direct=3 / weightb=1 / open_gop=0 / weightp=2 / keyint=250 / keyint_min=23 / scenecut=40 / intra_refresh=0 / rc_lookahead=40 / rc=crf / mbtree=1 / crf=18.0000 / qcomp=0.80 / qpmin=0 / qpmax=69 / qpstep=4 / ip_ratio=1.30 / aq=1:0.85
Language : English
Default : Yes
Forced : No

Audio #1
ID : 2
Format : DTS
Format/Info : Digital Theater Systems
Mode : 16
Format settings, Endianness : Big
Codec ID : A_DTS
Duration : 1h 54mn
Bit rate mode : Constant
Bit rate : 768 Kbps
Channel(s) : 2 channels
Channel positions : Front: L R
Sampling rate : 48.0 KHz
Bit depth : 24 bits
Compression mode : Lossy
Stream size : 631 MiB (6%)
Title : |Дубляж, Blu-ray EUR|
Language : Russian
Default : Yes
Forced : No

Audio #2
ID : 3
Format : DTS
Format/Info : Digital Theater Systems
Mode : 16
Format settings, Endianness : Big
Codec ID : A_DTS
Duration : 1h 54mn
Bit rate mode : Constant
Bit rate : 1 509 Kbps
Channel(s) : 6 channels
Channel positions : Front: L C R, Side: L R, LFE
Sampling rate : 48.0 KHz
Bit depth : 24 bits
Compression mode : Lossy
Delay relative to video : 21ms
Stream size : 1.21 GiB (12%)
Title : |Одноголосый закадровый, А.Гаврилов|
Language : Russian
Default : No
Forced : No

Audio #3
ID : 4
Format : DTS
Format/Info : Digital Theater Systems
Mode : 16
Format settings, Endianness : Big
Codec ID : A_DTS
Duration : 1h 54mn
Bit rate mode : Constant
Bit rate : 1 509 Kbps
Channel(s) : 6 channels
Channel positions : Front: L C R, Side: L R, LFE
Sampling rate : 48.0 KHz
Bit depth : 24 bits
Compression mode : Lossy
Delay relative to video : 21ms
Stream size : 1.21 GiB (12%)
Title : |Одноголосый закадровый, С.Визгунов|
Language : Russian
Default : No
Forced : No

Audio #4
ID : 5
Format : DTS
Format/Info : Digital Theater Systems
Mode : 16
Format settings, Endianness : Big
Codec ID : A_DTS
Duration : 1h 54mn
Bit rate mode : Constant
Bit rate : 1 509 Kbps
Channel(s) : 6 channels
Channel positions : Front: L C R, Side: L R, LFE
Sampling rate : 48.0 KHz
Bit depth : 24 bits
Compression mode : Lossy
Delay relative to video : 21ms
Stream size : 1.21 GiB (12%)
Title : |Одноголосый закадровый, Ю.Немахов|
Language : Russian
Default : No
Forced : No

Audio #5
ID : 6
Format : DTS
Format/Info : Digital Theater Systems
Mode : 16
Format settings, Endianness : Big
Codec ID : A_DTS
Duration : 1h 54mn
Bit rate mode : Constant
Bit rate : 1 509 Kbps
Channel(s) : 6 channels
Channel positions : Front: L C R, Side: L R, LFE
Sampling rate : 48.0 KHz
Bit depth : 24 bits
Compression mode : Lossy
Delay relative to video : 21ms
Stream size : 1.21 GiB (12%)
Language : English
Default : No
Forced : No

Audio #6
ID : 7
Format : AC-3
Format/Info : Audio Coding 3
Mode extension : CM (complete main)
Format settings, Endianness : Big
Codec ID : A_AC3
Duration : 1h 54mn
Bit rate mode : Constant
Bit rate : 192 Kbps
Channel(s) : 2 channels
Channel positions : Front: L R
Sampling rate : 48.0 KHz
Bit depth : 16 bits
Compression mode : Lossy
Stream size : 158 MiB (2%)
Title : |Coppola's Commentary|
Language : English
Default : No
Forced : No

Audio #7
ID : 8
Format : AC-3
Format/Info : Audio Coding 3
Mode extension : CM (complete main)
Format settings, Endianness : Big
Codec ID : A_AC3
Duration : 1h 54mn
Bit rate mode : Constant
Bit rate : 192 Kbps
Channel(s) : 2 channels
Channel positions : Front: L R
Sampling rate : 48.0 KHz
Bit depth : 16 bits
Compression mode : Lossy
Stream size : 158 MiB (2%)
Title : |Actors' Commentary|
Language : English
Default : No
Forced : No

Text #1
ID : 9
Format : UTF-8
Codec ID : S_TEXT/UTF8
Codec ID/Info : UTF-8 Plain Text
Language : Russian
Default : No
Forced : No

Text #2
ID : 10
Format : UTF-8
Codec ID : S_TEXT/UTF8
Codec ID/Info : UTF-8 Plain Text
Title : SDH
Language : English
Default : No
Forced : No

Text #3
ID : 11
Format : UTF-8
Codec ID : S_TEXT/UTF8
Codec ID/Info : UTF-8 Plain Text
Title : Commentary
Language : English
Default : No
Forced : No

Text #4
ID : 12
Format : UTF-8
Codec ID : S_TEXT/UTF8
Codec ID/Info : UTF-8 Plain Text
Title : Commentary
Language : English
Default : No
Forced : No

Menu
00:00:00.000 : en:Chapter 01
00:12:58.235 : en:Chapter 02
00:17:35.052 : en:Chapter 03
00:25:31.445 : en:Chapter 04
00:33:34.761 : en:Chapter 05
00:38:27.346 : en:Chapter 06
00:44:49.686 : en:Chapter 07
00:52:45.661 : en:Chapter 08
00:59:47.041 : en:Chapter 09
01:05:43.938 : en:Chapter 10
01:10:14.376 : en:Chapter 11
01:18:40.006 : en:Chapter 12
01:22:39.871 : en:Chapter 13
01:28:12.412 : en:Chapter 14
01:35:44.447 : en:Chapter 15
01:45:38.497 : en:Chapter 16

ЦитатаКто-то писал:
Сохранены оригинальные чаптеры как на Blu-ray.
[*]За ремукс спасибо Pyha
загрузка...
Правила, инструкции, FAQ!!!
Торрент  Добавлен [07 дек 2014, 17:59] Скачать торрент
Скачать торрент
[ Размер 49.42 КБ / Просмотров 3 ]

Статус
Проверен 
 
Размер  9.75 ГБ
Приватный: Нет (DHT включён)
.torrent скачан  3
Как залить торрент? | Как скачать Torrent? | Как смотреть и слушать онлайн?  


     Отправить личное сообщение
   
Страница 1 из 1
Показать сообщения за:  Поле сортировки  
Начать новую тему Ответить на тему

   Похожие торренты   Автор   Ответы   Просмотры   Последнее сообщение 
В этой теме нет новых непрочитанных сообщений. Скачать торрент Проверен Изгои / The Outsiders (1983) HDRip | Р

в форуме Драмы, Мелодрамы, Размер: 1.45 ГБ, Здоровье: 100%

Гость

0
10|0

50
121

07 дек 2014, 17:56

Гость Перейти к последнему сообщению

В этой теме нет новых непрочитанных сообщений. Скачать торрент Проверен (Hard Rock) Neurotic Outsiders (Sex Pistols, Duran Duran, Guns'n'Roses,The Cult) - Neurotic Outsiders - 1996, APE (image+.cue), lossless

в форуме Classic Rock & Hard Rock, Размер: 344.65 МБ, Здоровье: 100%

Anonymous

0
5|1

4
0

03 сен 2016, 17:32

Anonymous Перейти к последнему сообщению

В этой теме нет новых непрочитанных сообщений. Скачать торрент Проверен Лицо со шрамом / Scarface (1983) BDRip 720p

в форуме 720p | 1080p, Размер: 7.76 ГБ, Здоровье: 100%

Anonymous

0
41|2

26
468

25 сен 2014, 14:13

Anonymous Перейти к последнему сообщению

В этой теме нет новых непрочитанных сообщений. Скачать торрент Проверен Мертвая Зона / The Dead Zone (1983) BDRip 720p | P, P2, A, L1

в форуме 720p | 1080p, Размер: 7.94 ГБ, Здоровье: 100%

Anonymous

0
37|5

38
216

16 ноя 2014, 13:03

Anonymous Перейти к последнему сообщению

В этой теме нет новых непрочитанных сообщений. Скачать торрент Кристина / Christine (Джон Карпентер / John Carpenter) [1983, США, Ужасы, триллер, драма, детектив, BDRip 720p]

в форуме 720p | 1080p, Размер: 5.4 ГБ, Здоровье: 100%

Anonymous

0
7|2

79
0

25 фев 2014, 22:41

Anonymous Перейти к последнему сообщению



Сейчас этот форум просматривают: нет зарегистрированных пользователей и гости: 2


Вы не можете начинать темы
Вы не можете отвечать на сообщения
Вы не можете редактировать свои сообщения
Вы не можете удалять свои сообщения
Вы не можете добавлять вложения

Перейти:  

!ВНИМАНИЕ!
 Ресурс не предоставляет электронные версии произведений, а занимается лишь коллекционированием и каталогизацией ссылок, присылаемых и публикуемых на форуме нашими читателями. Если вы являетесь правообладателем какого-либо представленного материала и не желаете чтобы ссылка на него находилась в нашем каталоге, свяжитесь с нами и мы незамедлительно удалим её. Файлы для обмена на трекере предоставлены пользователями сайта, и администрация не несёт ответственности за их содержание. Просьба не заливать файлы, защищенные авторскими правами, а также файлы нелегального содержания!