На всех торрентах на трекере установлена скидка на скачивание в размере 100 процентов(а).
 Возможность скачивания торрента НЕ зависит от ограничений при низком ратио, низком аплоаде, требуемом ратио или требуемом аплоаде.


Начать новую тему Ответить на тему
Статистика раздачи
Размер: 7.72 ГБ | Добавлен: 07 дек 2014, 11:34 | Скачали: 29
Сидеров: 16  [0 байт/сек]    Личеров: 1  [0 байт/сек]
Пред. тема | След. тема 

Автор
Сообщение

СообщениеДобавлено: 07 дек 2014, 11:34 

Название: Время ведьм
Оригинальное название: Season of the Witch
Год выпуска: 2010
Жанр: Фэнтези, боевик, приключения
Выпущено: США, Atlas Entertainment, Relativity Media
Режиссер: Доминик Сена
В ролях: Николас Кейдж, Рон Перлман, Стивен Кэмпбелл Мур, Стивен Грэм, Ульрих Томсен, Клер Фой, Роберт Шиэн, Кристофер Ли, Ребека Кеннеди, Эндрю Хефлер

Перевод: Дублированный


Сюжет фильма

XIV столетие. В Европе свирепствует чума. Виновницей смертоносной беды признают беззащитную девушку, подозревая ее в колдовстве. Умирающий кардинал просит рыцаря Бэймена доставить ведьму в далекое аббатство, где ее чары должны быть разрушены. Семеро верховых и повозка с железной клеткой, в которой заточена обвиняемая, отправляются в опасное путешествие. Скоро рыцари осознают, их миловидная спутница действительно не человек, а исчадие ада...






Качество: BDRip 1080p (исходник Blu-ray)
Видео: 1920x1080, 10412 Кбит/сек, 23,976 кадр/сек, AVC, x264, High@L4.1, 0.209 Бит/[Пиксели*Кадры], 2pass
Аудио 1: AC3 5.1 48 kHz 640 kbps - Дублированный
Аудио 2: AC3 5.1 48 kHz 640 kbps - Оригинальный / Английский
Чаптеры: есть
Субтитры: Русские
Продолжительность: 01:34:55
Автор Рипа:



Format : Matroska
Format version : Version 2
File size : 7.72 GiB
Duration : 1h 34mn
Overall bit rate : 11.6 Mbps
Movie name : Vremja ved'm.(2010).BDRip.1080p.[denis100]
Encoded date : UTC 2014-01-12 11:56:41
Writing application : mkvmerge v5.8.0 ('No Sleep / Pillow') built on Sep 2 2012 15:37:04
Writing library : libebml v1.2.3 + libmatroska v1.3.0

Video
ID : 1
Format : AVC
Format/Info : Advanced Video Codec
Format profile : High@L4.1
Format settings, CABAC : Yes
Format settings, ReFrames : 4 frames
Codec ID : V_MPEG4/ISO/AVC
Duration : 1h 34mn
Bit rate : 10.4 Mbps
Width : 1 920 pixels
Height : 1 080 pixels
Display aspect ratio : 16:9
Frame rate mode : Constant
Frame rate : 23.976 fps
Color space : YUV
Chroma subsampling : 4:2:0
Bit depth : 8 bits
Scan type : Progressive
Bits/(Pixel*Frame) : 0.209
Stream size : 6.71 GiB (87%)
Title : Vremja ved'm.(2010).BDRip.1080p.[denis100]
Writing library : x264 core 140 r2377 1ca7bb9
Encoding settings : cabac=1 / ref=4 / deblock=1:-3:-3 / analyse=0x3:0x133 / me=umh / subme=11 / psy=1 / psy_rd=1.00:0.10 / mixed_ref=1 / me_range=32 / chroma_me=1 / trellis=2 / 8x8dct=1 / cqm=0 / deadzone=21,11 / fast_pskip=0 / chroma_qp_offset=-3 / threads=6 / lookahead_threads=1 / sliced_threads=0 / nr=0 / decimate=0 / interlaced=0 / bluray_compat=0 / constrained_intra=0 / bframes=6 / b_pyramid=2 / b_adapt=2 / b_bias=0 / direct=3 / weightb=1 / open_gop=0 / weightp=2 / keyint=240 / keyint_min=23 / scenecut=40 / intra_refresh=0 / rc=2pass / mbtree=0 / bitrate=10412 / ratetol=1.0 / qcomp=0.60 / qpmin=0 / qpmax=69 / qpstep=4 / cplxblur=20.0 / qblur=0.5 / ip_ratio=1.40 / pb_ratio=1.30 / aq=1:0.90
Language : English
Default : Yes
Forced : No

Audio #1
ID : 2
Format : AC-3
Format/Info : Audio Coding 3
Mode extension : CM (complete main)
Format settings, Endianness : Big
Codec ID : A_AC3
Duration : 1h 34mn
Bit rate mode : Constant
Bit rate : 640 Kbps
Channel count : 6 channels
Channel positions : Front: L C R, Side: L R, LFE
Sampling rate : 48.0 KHz
Bit depth : 16 bits
Compression mode : Lossy
Stream size : 435 MiB (6%)
Title : Дублированный
Language : Russian
Default : Yes
Forced : No

Audio #2
ID : 3
Format : AC-3
Format/Info : Audio Coding 3
Mode extension : CM (complete main)
Format settings, Endianness : Big
Codec ID : A_AC3
Duration : 1h 34mn
Bit rate mode : Constant
Bit rate : 640 Kbps
Channel count : 6 channels
Channel positions : Front: L C R, Side: L R, LFE
Sampling rate : 48.0 KHz
Bit depth : 16 bits
Compression mode : Lossy
Stream size : 435 MiB (6%)
Title : English
Language : English
Default : No
Forced : No

Text
ID : 4
Format : UTF-8
Codec ID : S_TEXT/UTF8
Codec ID/Info : UTF-8 Plain Text
Title : русские
Language : Russian
Default : No
Forced : No

Menu
00:00:00.000 : en:00:00:00.000
00:03:33.087 : en:00:03:33.087
00:05:44.385 : en:00:05:44.385
00:12:06.725 : en:00:12:06.725
00:15:11.660 : en:00:15:11.660
00:18:30.484 : en:00:18:30.484
00:21:01.385 : en:00:21:01.385
00:23:41.795 : en:00:23:41.795
00:28:55.066 : en:00:28:55.066
00:34:00.621 : en:00:34:00.621
00:37:45.805 : en:00:37:45.805
00:45:01.323 : en:00:45:01.323
00:48:43.712 : en:00:48:43.712
00:54:58.753 : en:00:54:58.753
01:01:26.933 : en:01:01:26.933
01:04:28.823 : en:01:04:28.823
01:08:19.345 : en:01:08:19.345
01:12:02.693 : en:01:12:02.693
01:14:19.746 : en:01:14:19.746
01:17:49.498 : en:01:17:49.498
01:23:43.852 : en:01:23:43.852
01:24:57.842 : en:01:24:57.842
01:27:09.474 : en:01:27:09.474
x264 [info]: frame I:979 Avg QP:17.26 size:261537
x264 [info]: frame P:35297 Avg QP:20.36 size: 94738
x264 [info]: frame B:100268 Avg QP:21.90 size: 37621
загрузка...
Правила, инструкции, FAQ!!!
Торрент  Добавлен [07 дек 2014, 11:34] Скачать торрент
Скачать торрент
[ Размер 39.1 КБ / Просмотров 3 ]

Статус
Проверен 
 
Размер  7.72 ГБ
Приватный: Нет (DHT включён)
.torrent скачан  29
Как залить торрент? | Как скачать Torrent? | Как смотреть и слушать онлайн?  


     Отправить личное сообщение
   
Страница 1 из 1
Показать сообщения за:  Поле сортировки  
Начать новую тему Ответить на тему

   Похожие торренты   Автор   Ответы   Просмотры   Последнее сообщение 
В этой теме нет новых непрочитанных сообщений. Скачать торрент Проверен Время ведьм / Season of the Witch (2011) BDRip 720p | D

в форуме 720p | 1080p, Размер: 4.37 ГБ, Здоровье: 100%

Anonymous

0
33|5

28
51

07 дек 2014, 11:32

Anonymous Перейти к последнему сообщению

В этой теме нет новых непрочитанных сообщений. Скачать торрент Проверен [iPad] Время ведьм / Season of the Witch (Доминик Сена / Dominic Sena) [2011, США, Фэнтези, боевик, приключения, BDRip 720p]

в форуме Фильмы для iPod, iPhone, iPad, Размер: 2.56 ГБ, Здоровье: 100%

Гость

0
24|4

22
1

18 май 2015, 10:39

Гость Перейти к последнему сообщению

В этой теме нет новых непрочитанных сообщений. Скачать торрент Проверен [PSP] Время ведьм / Season of the Witch (2011) DVDRip

в форуме Видео для смартфонов и КПК, Размер: 583.82 МБ, Здоровье: 25%

Anonymous

0
1|4

25
0

25 окт 2014, 23:15

Anonymous Перейти к последнему сообщению

В этой теме нет новых непрочитанных сообщений. Скачать торрент Проверен Время ведьм / Season of the Witch (2011) HDRip | Лицензия

в форуме Фантастика, Фэнтези, Размер: 1.41 ГБ, Здоровье: 100%

Гость

0
335|15

61
3475

07 дек 2014, 11:30

Гость Перейти к последнему сообщению

В этой теме нет новых непрочитанных сообщений. Закрыто правообладателем Последний охотник на ведьм / The Last Witch Hunter (2015) HDRip | iTunes Данный торрент является блокированным, причина: Закрыто правообладателем

в форуме Фантастика, Фэнтези, Размер: 1.45 ГБ, Здоровье: 100%

Гость

0
105|1

201
11

23 янв 2016, 20:13

Гость Перейти к последнему сообщению



Сейчас этот форум просматривают: нет зарегистрированных пользователей и гости: 3


Вы не можете начинать темы
Вы не можете отвечать на сообщения
Вы не можете редактировать свои сообщения
Вы не можете удалять свои сообщения
Вы не можете добавлять вложения

Перейти:  

!ВНИМАНИЕ!
 Ресурс не предоставляет электронные версии произведений, а занимается лишь коллекционированием и каталогизацией ссылок, присылаемых и публикуемых на форуме нашими читателями. Если вы являетесь правообладателем какого-либо представленного материала и не желаете чтобы ссылка на него находилась в нашем каталоге, свяжитесь с нами и мы незамедлительно удалим её. Файлы для обмена на трекере предоставлены пользователями сайта, и администрация не несёт ответственности за их содержание. Просьба не заливать файлы, защищенные авторскими правами, а также файлы нелегального содержания!