На всех торрентах на трекере установлена скидка на скачивание в размере 100 процентов(а).
 Возможность скачивания торрента НЕ зависит от ограничений при низком ратио, низком аплоаде, требуемом ратио или требуемом аплоаде.


Начать новую тему Ответить на тему
Статистика раздачи
Размер: 4.37 ГБ | Добавлен: 07 дек 2014, 11:32 | Скачали: 51
Сидеров: 33  [0 байт/сек]    Личеров: 5  [0 байт/сек]
Пред. тема | След. тема 

Автор
Сообщение

СообщениеДобавлено: 07 дек 2014, 11:32 

Название: Время ведьм
Оригинальное название: Season of the Witch
Год выхода: 2011
Жанр: фэнтези, боевик, приключения
Режиссер: Доминик Сена
В ролях: Николас Кейдж, Рон Перлман, Стивен Кэмпбелл Мур, Стивен Грэм, Ульрих Томсен, Клер Фой, Роберт Шиэн, Кристофер Ли, Ребека Кеннеди, Эндрю Хефлер

Роли дублировали: Александр Рахленко, Александр Новиков, Денис Беспалый, Леонид Белозорович, Никита Прозоровский

Описание: XIV столетие. В Европе свирепствует чума. Виновницей смертоносной беды признают беззащитную девушку, подозревая ее в колдовстве. Умирающий кардинал просит рыцаря Бэймена доставить ведьму в далекое аббатство, где ее чары должны быть разрушены.

Шестеро верховых и повозка с железной клеткой, в которой заточена обвиняемая, отправляются в опасное путешествие. Скоро рыцари осознают, их миловидная спутница действительно не человек, а исчадие ада.



Страна: США
Продолжительность: 01:34:44
Перевод: Профессиональный (Дублированный) (Лицензия)


Формат: MKV
Качество: BDRip 720p (Источник: Blu-ray Disc)
Видео: 1280x720 (16:9), 23.976 fps, 5967 kbps, 0.270 bit/pixel
Аудио: AC-3, 6 ch, 640 kbps (Дублированный Лицензия)
Субтитры: нет
Скачать: Семпл


General
Unique ID : 241642482143863822943864057904542429053 (0xB5CAA63343035443AB2E307C57BAAF7D)
Complete name : Season.of.the.Witch.2011.BDRip.720p.mkv
Format : Matroska
Format version : Version 2
File size : 4.37 GiB
Duration : 1h 34mn
Overall bit rate : 6 597 Kbps
Encoded date : UTC 2013-12-29 13:29:17
Writing application : mkvmerge v5.6.0 ('Kenya Kane') built on May 27 2012 16:44:04
Writing library : libebml v1.2.3 + libmatroska v1.3.0

Video
ID : 1
Format : AVC
Format/Info : Advanced Video Codec
Format profile : High@L4.1
Format settings, CABAC : Yes
Format settings, ReFrames : 8 frames
Codec ID : V_MPEG4/ISO/AVC
Duration : 1h 34mn
Bit rate : 5 967 Kbps
Width : 1 280 pixels
Height : 720 pixels
Display aspect ratio : 16:9
Frame rate mode : Constant
Frame rate : 23.976 fps
Color space : YUV
Chroma subsampling : 4:2:0
Bit depth : 8 bits
Scan type : Progressive
Bits/(Pixel*Frame) : 0.270
Stream size : 3.85 GiB (88%)
Title : Время ведьм / Season of the Witch (2011)
Writing library : x264 core 130 r2273 b3065e6
Encoding settings : cabac=1 / ref=8 / deblock=1:-3:-3 / analyse=0x3:0x113 / me=umh / subme=11 / psy=1 / psy_rd=1.00:0.00 / mixed_ref=1 / me_range=32 / chroma_me=1 / trellis=2 / 8x8dct=1 / cqm=0 / deadzone=21,11 / fast_pskip=1 / chroma_qp_offset=-2 / threads=6 / lookahead_threads=1 / sliced_threads=0 / nr=0 / decimate=1 / interlaced=0 / bluray_compat=0 / constrained_intra=0 / bframes=6 / b_pyramid=2 / b_adapt=2 / b_bias=0 / direct=3 / weightb=1 / open_gop=0 / weightp=2 / keyint=240 / keyint_min=23 / scenecut=40 / intra_refresh=0 / rc=2pass / mbtree=0 / bitrate=5967 / ratetol=1.0 / qcomp=0.60 / qpmin=0 / qpmax=69 / qpstep=4 / cplxblur=20.0 / qblur=0.5 / ip_ratio=1.40 / pb_ratio=1.30 / aq=1:1.00
Language : English
Default : Yes
Forced : No
Color primaries : BT.709
Transfer characteristics : BT.709
Matrix coefficients : BT.709

Audio
ID : 2
Format : AC-3
Format/Info : Audio Coding 3
Mode extension : CM (complete main)
Format settings, Endianness : Big
Codec ID : A_AC3
Duration : 1h 34mn
Bit rate mode : Constant
Bit rate : 640 Kbps
Channel count : 6 channels
Channel positions : Front: L C R, Side: L R, LFE
Sampling rate : 48.0 KHz
Bit depth : 16 bits
Compression mode : Lossy
Stream size : 434 MiB (10%)
Title : Дублированный 5.1 (Лицензия)
Language : Russian
Default : Yes
Forced : No
загрузка...
Правила, инструкции, FAQ!!!
Торрент  Добавлен [07 дек 2014, 11:32] Скачать торрент
Скачать торрент
[ Размер 22.34 КБ / Просмотров 3 ]

Статус
Проверен 
 
Размер  4.37 ГБ
Приватный: Нет (DHT включён)
.torrent скачан  51
Как залить торрент? | Как скачать Torrent? | Как смотреть и слушать онлайн?  


     Отправить личное сообщение
   
Страница 1 из 1
Показать сообщения за:  Поле сортировки  
Начать новую тему Ответить на тему

   Похожие торренты   Автор   Ответы   Просмотры   Последнее сообщение 
В этой теме нет новых непрочитанных сообщений. Скачать торрент Проверен [iPad] Время ведьм / Season of the Witch (Доминик Сена / Dominic Sena) [2011, США, Фэнтези, боевик, приключения, BDRip 720p]

в форуме Фильмы для iPod, iPhone, iPad, Размер: 2.56 ГБ, Здоровье: 100%

Гость

0
24|4

22
1

18 май 2015, 10:39

Гость Перейти к последнему сообщению

В этой теме нет новых непрочитанных сообщений. Скачать торрент Проверен Время ведьм / Season of the Witch (2010) BDRip 1080p

в форуме 720p | 1080p, Размер: 7.72 ГБ, Здоровье: 100%

Anonymous

0
16|1

28
29

07 дек 2014, 11:34

Anonymous Перейти к последнему сообщению

В этой теме нет новых непрочитанных сообщений. Скачать торрент Проверен [PSP] Время ведьм / Season of the Witch (2011) DVDRip

в форуме Видео для смартфонов и КПК, Размер: 583.82 МБ, Здоровье: 25%

Anonymous

0
1|4

25
0

25 окт 2014, 23:15

Anonymous Перейти к последнему сообщению

В этой теме нет новых непрочитанных сообщений. Скачать торрент Проверен Время ведьм / Season of the Witch (2011) HDRip | Лицензия

в форуме Фантастика, Фэнтези, Размер: 1.41 ГБ, Здоровье: 100%

Гость

0
335|15

63
3475

07 дек 2014, 11:30

Гость Перейти к последнему сообщению

В этой теме нет новых непрочитанных сообщений. Закрыто правообладателем Последний охотник на ведьм / The Last Witch Hunter (2015) HDRip | iTunes Данный торрент является блокированным, причина: Закрыто правообладателем

в форуме Фантастика, Фэнтези, Размер: 1.45 ГБ, Здоровье: 100%

Гость

0
105|1

207
11

23 янв 2016, 20:13

Гость Перейти к последнему сообщению



Сейчас этот форум просматривают: нет зарегистрированных пользователей и гости: 1


Вы не можете начинать темы
Вы не можете отвечать на сообщения
Вы не можете редактировать свои сообщения
Вы не можете удалять свои сообщения
Вы не можете добавлять вложения

Перейти:  

!ВНИМАНИЕ!
 Ресурс не предоставляет электронные версии произведений, а занимается лишь коллекционированием и каталогизацией ссылок, присылаемых и публикуемых на форуме нашими читателями. Если вы являетесь правообладателем какого-либо представленного материала и не желаете чтобы ссылка на него находилась в нашем каталоге, свяжитесь с нами и мы незамедлительно удалим её. Файлы для обмена на трекере предоставлены пользователями сайта, и администрация не несёт ответственности за их содержание. Просьба не заливать файлы, защищенные авторскими правами, а также файлы нелегального содержания!