На всех торрентах на трекере установлена скидка на скачивание в размере 100 процентов(а).
 Возможность скачивания торрента НЕ зависит от ограничений при низком ратио, низком аплоаде, требуемом ратио или требуемом аплоаде.


Начать новую тему Ответить на тему
Статистика раздачи
Размер: 7.76 ГБ | Добавлен: 06 дек 2014, 21:34 | Скачали: 110
Сидеров: 51  [0 байт/сек]    Личеров: 7  [0 байт/сек]
Пред. тема | След. тема 

Автор
Сообщение

СообщениеДобавлено: 06 дек 2014, 21:34 

Название: Проклятый путь
Оригинальное название: Road to Perdition
Год выхода: 2002
Жанр: триллер, драма, криминал
Режиссер: Сэм Мендес
В ролях: Том Хэнкс, Пол Ньюман, Джуд Лоу, Дженнифер Джейсон Ли, Стенли Туччи, Дэниэл Крэйг, Тайлер Хёхлин, Лиам Эйкен, Киаран Хиндс, Дилан Бейкер

О фильме:
Внешне вполне среднестатистический американец Майкл Салливан живёт жизнью нормального гражданина 30-х годов XX века. Он хороший отец, крепкий семьянин, ответственный работник; но одно не дает покоя его старшему сыну Майклу — куда именно отец уезжает на своей машине каждое утро и что за люди окружают его — в костюмах идеального покроя, но со странной хитрецой в глазах? Однажды Майкл забирается на заднее сиденье машины отца и становится свидетелем его работы. Проблема в том, что Майкл Салливан — самый настоящий гангстер, выполняющий деликатные поручения, где нет места лишним свидетелям. Из-за этого жизнь Майкла оказывается под угрозой. Чтобы спасти его, Майк вынужден пойти против боссов мафии.



Выпущено: США
Продолжительность: 01:56:58
Перевод: Дублированный + Оригинал


Кодек: x264
Качество: BDRip 1080p
Видео: 1920x816, 8218 Kbps, 23.976 fps
Аудио #1: AC-3, 6 ch, 640 kbps (Rus)
Аудио #2: AC-3, 6 ch, 640 kbps (Eng)
Субтитры: русские (полные, форсированные), английские

Общее
Уникальный идентификатор : 223424928832115892031810650707760116588 (0xA8161379B8163CDB9EB33D145E91F36C)
Полное имя : Проклятый путь.2002.BDRip.1080p.Rus.Eng.mkv
Формат : Matroska
Версия формата : Version 4 / Version 2
Размер файла : 7,76 Гбайт
Продолжительность : 1 ч. 56 м.
Общий поток : 9496 Кбит/сек
Название фильма : Проклятый путь.2002
Дата кодирования : UTC 2013-02-20 16:53:35
Программа кодирования : mkvmerge v6.0.0 ('Coming Up For Air') built on Jan 20 2013 09:52:00
Библиотека кодирования : libebml v1.3.0 + libmatroska v1.4.0

Видео
Идентификатор : 1
Формат : AVC
Формат/Информация : Advanced Video Codec
Профиль формата : High@L4.1
Параметр CABAC формата : Да
Параметр ReFrames формата : 5 кадров
Идентификатор кодека : V_MPEG4/ISO/AVC
Продолжительность : 1 ч. 56 м.
Битрейт : 8218 Кбит/сек
Ширина : 1920 пикселей
Высота : 816 пикселей
Соотношение сторон : 2,35:1
Режим частоты кадров : Постоянный
Частота кадров : 23,976 кадра/сек
Цветовое пространство : YUV
Субдискретизация насыщенности : 4:2:0
Битовая глубина : 8 бит
Тип развёртки : Прогрессивная
Бит/(Пиксели*Кадры) : 0.219
Размер потока : 6,56 Гбайт (85%)
Заголовок : Rip by Boriy
Библиотека кодирования : x264 core 129 r2245 bc13772
Настройки программы : cabac=1 / ref=5 / deblock=1:-3:-3 / analyse=0x3:0x113 / me=umh / subme=10 / psy=1 / psy_rd=1.00:0.10 / mixed_ref=1 / me_range=32 / chroma_me=1 / trellis=2 / 8x8dct=1 / cqm=0 / deadzone=21,11 / fast_pskip=0 / chroma_qp_offset=-2 / threads=12 / lookahead_threads=2 / sliced_threads=0 / nr=0 / decimate=0 / interlaced=0 / bluray_compat=0 / constrained_intra=0 / bframes=5 / b_pyramid=2 / b_adapt=2 / b_bias=0 / direct=3 / weightb=1 / open_gop=0 / weightp=2 / keyint=240 / keyint_min=23 / scenecut=40 / intra_refresh=0 / rc=2pass / mbtree=0 / bitrate=8218 / ratetol=1.0 / qcomp=0.60 / qpmin=0 / qpmax=69 / qpstep=4 / cplxblur=20.0 / qblur=0.5 / ip_ratio=1.40 / pb_ratio=1.30 / aq=1:0.80
Язык : English
Default : Да
Forced : Нет

Аудио #1
Идентификатор : 2
Формат : AC-3
Формат/Информация : Audio Coding 3
Расширение режима : CM (complete main)
Параметр Endianness формата : Big
Идентификатор кодека : A_AC3
Продолжительность : 1 ч. 56 м.
Вид битрейта : Постоянный
Битрейт : 640 Кбит/сек
Каналы : 6 каналов
Расположение каналов : Front: L C R, Side: L R, LFE
Частота : 48,0 КГц
Битовая глубина : 16 бит
Метод сжатия : С потерями
Размер потока : 536 Мбайт (7%)
Заголовок : Дубляж
Язык : Russian
Default : Да
Forced : Нет

Аудио #2
Идентификатор : 3
Формат : AC-3
Формат/Информация : Audio Coding 3
Расширение режима : CM (complete main)
Параметр Endianness формата : Big
Идентификатор кодека : A_AC3
Продолжительность : 1 ч. 56 м.
Вид битрейта : Постоянный
Битрейт : 640 Кбит/сек
Каналы : 6 каналов
Расположение каналов : Front: L C R, Side: L R, LFE
Частота : 48,0 КГц
Битовая глубина : 16 бит
Метод сжатия : С потерями
Размер потока : 536 Мбайт (7%)
Заголовок : Оригинал
Язык : English
Default : Нет
Forced : Нет

Текст #1
Идентификатор : 4
Формат : UTF-8
Идентификатор кодека : S_TEXT/UTF8
Идентификатор кодека/Информация : UTF-8 Plain Text
Заголовок : Forced
Язык : Russian
Default : Да
Forced : Да

Текст #2
Идентификатор : 5
Формат : UTF-8
Идентификатор кодека : S_TEXT/UTF8
Идентификатор кодека/Информация : UTF-8 Plain Text
Заголовок : Full
Язык : Russian
Default : Нет
Forced : Нет

Текст #3
Идентификатор : 6
Формат : UTF-8
Идентификатор кодека : S_TEXT/UTF8
Идентификатор кодека/Информация : UTF-8 Plain Text
Заголовок : Full
Язык : English
Default : Нет
Forced : Нет

Меню
00:00:00.000 : :The Winter of 1931
00:06:21.005 : :The Wake
00:10:25.458 : :Speeches
00:14:42.798 : :What's Papa's Job?
00:19:47.185 : :Stowaway
00:26:46.771 : :A Man of Honor
00:30:23.154 : :Natural Law
00:35:02.266 : :Collecting Debts
00:41:08.799 : :Two Fathers, Two Sons
00:46:23.864 : :Road to Chicago
00:50:48.587 : :Mr. Nitti
00:55:58.104 : :Meet Maguire
00:58:57.909 : :Road to Perdition
01:03:32.016 : :The Diner
01:11:33.872 : :Driving Lessons
01:13:08.133 : :Dirty Money
01:15:55.551 : :We're Bank Robbers
01:18:36.586 : :Runny Eggs
01:24:45.997 : :The Farmhouse
01:32:22.078 : :Only Murderers
01:35:55.957 : :The Rain
01:41:33.879 : :Lexington Hotel Room
01:43:32.080 : :The Lake House
01:50:37.088 : :He Was My Father
загрузка...
Правила, инструкции, FAQ!!!
Торрент  Добавлен [06 дек 2014, 21:34] Скачать торрент
Скачать торрент
[ Размер 39.33 КБ / Просмотров 5 ]

Статус
Проверен 
 
Размер  7.76 ГБ
Приватный: Нет (DHT включён)
.torrent скачан  110
Как залить торрент? | Как скачать Torrent? | Как смотреть и слушать онлайн?  


     Отправить личное сообщение
   
Страница 1 из 1
Показать сообщения за:  Поле сортировки  
Начать новую тему Ответить на тему

   Похожие торренты   Автор   Ответы   Просмотры   Последнее сообщение 
В этой теме нет новых непрочитанных сообщений. Скачать торрент Проверен Проклятый путь / Road to Perdition (2002) BDRip 720p

в форуме 720p | 1080p, Размер: 6.97 ГБ, Здоровье: 42%

Anonymous

0
38|89

17
23

30 ноя 2014, 02:47

Anonymous Перейти к последнему сообщению

В этой теме нет новых непрочитанных сообщений. Скачать торрент Проверен [iPhone] Проклятый путь / Road to Perdition (Сэм Мендес) [2002 г., триллер, драма, приключения, криминал, DVDRip, 640x272]

в форуме Фильмы для iPod, iPhone, iPad, Размер: 856.09 МБ, Здоровье: 100%

Гость

0
2|1

35
0

18 май 2015, 10:37

Гость Перейти к последнему сообщению

В этой теме нет новых непрочитанных сообщений. Скачать торрент Проверен Путь в Палому / Road to Paloma (2014) BDRip 720p | L1

в форуме 720p | 1080p, Размер: 3.4 ГБ, Здоровье: 0%

Anonymous

0
0|0

28
0

12 авг 2014, 21:48

Anonymous Перейти к последнему сообщению

В этой теме нет новых непрочитанных сообщений. Скачать торрент Таинственный путь / Mystery Road (2013) BDRip 720p | L1

в форуме 720p | 1080p, Размер: 5.61 ГБ, Здоровье: 100%

Anonymous

0
14|0

31
46

09 апр 2014, 16:54

Anonymous Перейти к последнему сообщению

В этой теме нет новых непрочитанных сообщений. Скачать торрент Проверен Путь Карлито / Carlito's Way (1993) BDRip 1080p

в форуме 720p | 1080p, Размер: 11.55 ГБ, Здоровье: 100%

Гость

0
36|16

135
20

14 апр 2015, 22:18

Гость Перейти к последнему сообщению



Сейчас этот форум просматривают: нет зарегистрированных пользователей и гости: 1


Вы не можете начинать темы
Вы не можете отвечать на сообщения
Вы не можете редактировать свои сообщения
Вы не можете удалять свои сообщения
Вы не можете добавлять вложения

Перейти:  

!ВНИМАНИЕ!
 Ресурс не предоставляет электронные версии произведений, а занимается лишь коллекционированием и каталогизацией ссылок, присылаемых и публикуемых на форуме нашими читателями. Если вы являетесь правообладателем какого-либо представленного материала и не желаете чтобы ссылка на него находилась в нашем каталоге, свяжитесь с нами и мы незамедлительно удалим её. Файлы для обмена на трекере предоставлены пользователями сайта, и администрация не несёт ответственности за их содержание. Просьба не заливать файлы, защищенные авторскими правами, а также файлы нелегального содержания!