На всех торрентах на трекере установлена скидка на скачивание в размере 100 процентов(а).
 Возможность скачивания торрента НЕ зависит от ограничений при низком ратио, низком аплоаде, требуемом ратио или требуемом аплоаде.


Начать новую тему Ответить на тему
Статистика раздачи
Размер: 5.76 ГБ | Добавлен: 06 дек 2014, 20:51 | Скачали: 101
Сидеров: 40  [0 байт/сек]    Личеров: 2  [0 байт/сек]
Пред. тема | След. тема 

Автор
Сообщение

СообщениеДобавлено: 06 дек 2014, 20:51 

Год выпуска: 2008
Страна: США , Индия , Франция
Жанр: фантастика, триллер
Продолжительность: 01:30:23
Перевод: Профессиональный (дублированный)
Субтитры: Russian Fors(UTF-8), Russian (UTF-8), Ukrainian Fors(UTF-8), Ukrainian (UTF-8), English Fors(UTF-8), English (UTF-8)

Режиссер: М. Найт Шьямалан
Сценарий: М. Найт Шьямалан
Продюсер: Бэрри Мендел, Сэм Мерсер, М. Найт Шьямалан, ...
Оператор: Так Фудзимото
Композитор: Джеймс Ньютон Ховард
Художник: Жаннин Клаудия Оппуолл, Энтони Данн, Бетси Хайман, ...
Монтаж: Конрад Бафф IV

В ролях: Марк Уолберг / Mark Wahlberg (Elliot Moore), Зои Дешанель / Zooey Deschanel (Alma Moore), Джон Легуизамо / John Leguizamo (Julian), Эшлин Санчез / Ashlyn Sanchez (Jess), Бетти Бакли / Betty Buckley (Mrs. Jones), Спенсер Бреслин / Spencer Breslin (Josh), Роберт Бэйли мл. / Robert Bailey Jr. (Jared), Фрэнк Коллисон / Frank Collison (Nursery Owner)


Описание: История о семье, которая пытается сбежать от угрозы, грозящей всему человечеству. Беда приходит из ниоткуда, настигает внезапно, заставляя людей повсеместно совершать самоубийства. Страшная напасть, эпидемия или новая болезнь? Что это? Никто не знает…


Бюджет: $48 000 000
Сборы в США: $64 506 874
Сборы в мире: + $98 896 925 = $163 403 799
Сборы в России: $4 069 400
Зрители: США 8.98 млн , Франция 1.3 млн , Испания 1.07 млн
Премьера (мир): 11 июня 2008, ...
Премьера (РФ): 12 июня 2008, «Двадцатый Век Фокс СНГ»
Релиз на DVD: 18 июня 2009, «Двадцатый Век Фокс СНГ», ...
Релиз на Blu-Ray: 4 декабря 2008, «Двадцатый Век Фокс СНГ», ...
Рейтинг MPAA: Лицам до 17 лет обязательно присутствие взрослого




Качество: BDRip
Формат: MKV
Видео кодек: AVC
Аудио кодеk: AC3
Видео: 1920x1038 (1.850:1), 23.976 fps, AVC, 7 777 Kbps
Аудио #1: AC3, 448 Kbps, 48.0 KHz, 6 ch (RUS Dub)
Аудио #2: AC3, 448 Kbps, 48.0 KHz, 6 ch (Ukr Dub)
Аудио #3: AC3, 448 Kbps, 48.0 KHz, 6 ch (English)





General
Complete name : The.Happening.2008.BDRip.1080р.mkv
Format : Matroska
File size : 5.76 GiB
Duration : 1h 30mn
Overall bit rate : 9 120 Kbps
Encoded date : UTC 2013-04-11 19:36:49
Writing application : mkvmerge v6.1.0 ('Old Devil') built on Mar 2 2013 14:32:37
Writing library : libebml v1.3.0 + libmatroska v1.4.0

Video
ID : 1
Format : AVC
Format/Info : Advanced Video Codec
Format profile : High@L4.1
Format settings, CABAC : Yes
Format settings, ReFrames : 4 frames
Muxing mode : Container profile=Unknown@4.1
Codec ID : V_MPEG4/ISO/AVC
Duration : 1h 30mn
Bit rate : 7 777 Kbps
Width : 1 920 pixels
Height : 1 038 pixels
Display aspect ratio : 1.850
Frame rate : 23.976 fps
Color space : YUV
Chroma subsampling : 4:2:0
Bit depth : 8 bits
Scan type : Progressive
Bits/(Pixel*Frame) : 0.163
Stream size : 4.79 GiB (83%)
Writing library : x264 core 130 r2273 b3065e6
Encoding settings : cabac=1 / ref=4 / deblock=1:-2:-3 / analyse=0x3:0x133 / me=umh / subme=10 / psy=1 / psy_rd=1.00:0.00 / mixed_ref=1 / me_range=48 / chroma_me=1 / trellis=2 / 8x8dct=1 / cqm=0 / deadzone=21,11 / fast_pskip=0 / chroma_qp_offset=-2 / threads=6 / lookahead_threads=1 / sliced_threads=0 / nr=0 / decimate=1 / interlaced=0 / bluray_compat=0 / constrained_intra=0 / bframes=8 / b_pyramid=2 / b_adapt=2 / b_bias=0 / direct=3 / weightb=1 / open_gop=0 / weightp=2 / keyint=240 / keyint_min=24 / scenecut=40 / intra_refresh=0 / rc=2pass / mbtree=0 / bitrate=7777 / ratetol=2.0 / qcomp=1.00 / qpmin=0 / qpmax=51 / qpstep=4 / cplxblur=20.0 / qblur=0.5 / ip_ratio=1.40 / pb_ratio=1.30 / aq=1:1.00
Color primaries : BT.709-5, BT.1361, IEC 61966-2-4, SMPTE RP177
Transfer characteristics : BT.709-5, BT.1361
Matrix coefficients : BT.709-5, BT.1361, IEC 61966-2-4 709, SMPTE RP177

Audio #1
ID : 2
Format : AC-3
Format/Info : Audio Coding 3
Mode extension : CM (complete main)
Codec ID : A_AC3
Duration : 1h 30mn
Bit rate mode : Constant
Bit rate : 448 Kbps
Channel(s) : 6 channels
Channel positions : Front: L C R, Side: L R, LFE
Sampling rate : 48.0 KHz
Bit depth : 16 bits
Stream size : 290 MiB (5%)
Title : Дубляж
Language : Russian

Audio #2
ID : 3
Format : AC-3
Format/Info : Audio Coding 3
Mode extension : CM (complete main)
Codec ID : A_AC3
Duration : 1h 30mn
Bit rate mode : Constant
Bit rate : 448 Kbps
Channel(s) : 6 channels
Channel positions : Front: L C R, Side: L R, LFE
Sampling rate : 48.0 KHz
Bit depth : 16 bits
Stream size : 290 MiB (5%)
Title : Дубляж
Language : Ukrainian

Audio #3
ID : 4
Format : AC-3
Format/Info : Audio Coding 3
Mode extension : CM (complete main)
Codec ID : A_AC3
Duration : 1h 30mn
Bit rate mode : Constant
Bit rate : 448 Kbps
Channel(s) : 6 channels
Channel positions : Front: L C R, Side: L R, LFE
Sampling rate : 48.0 KHz
Bit depth : 16 bits
Stream size : 290 MiB (5%)

Text #1
ID : 5
Format : UTF-8
Codec ID : S_TEXT/UTF8
Codec ID/Info : UTF-8 Plain Text
Title : Sub-forced
Language : Russian

Text #2
ID : 6
Format : UTF-8
Codec ID : S_TEXT/UTF8
Codec ID/Info : UTF-8 Plain Text
Title : Sub
Language : Russian

Text #3
ID : 7
Format : UTF-8
Codec ID : S_TEXT/UTF8
Codec ID/Info : UTF-8 Plain Text
Title : Sub-forced
Language : Ukrainian

Text #4
ID : 8
Format : UTF-8
Codec ID : S_TEXT/UTF8
Codec ID/Info : UTF-8 Plain Text
Title : Sub
Language : Ukrainian

Text #5
ID : 9
Format : UTF-8
Codec ID : S_TEXT/UTF8
Codec ID/Info : UTF-8 Plain Text
Title : Sub-forced
Language : English

Text #6
ID : 10
Format : UTF-8
Codec ID : S_TEXT/UTF8
Codec ID/Info : UTF-8 Plain Text
Title : Sub-CDH
Language : English

Menu
00:00:00.000 : en:Main Titles
00:03:18.698 : en:Horror in the Park
00:05:11.686 : en:Taking a Fall
00:06:44.029 : en:Disappearing Bees
00:09:01.166 : en:Possible Terrorism
00:11:43.036 : en:Marital Woes
00:17:32.134 : en:Chilly, Isn't It
00:21:17.401 : en:Last Stop
00:27:40.117 : en:Welcome to Princeton
00:34:37.909 : en:Crossroads
00:38:23.801 : en:Talking Funny
00:44:00.054 : en:What If?
00:49:41.228 : en:Good Vibes
00:55:14.353 : en:Unwelcome Reception
01:02:44.636 : en:Mrs. Jones
01:08:37.071 : en:Force of Nature
01:13:24.150 : en:Mood Ring
01:18:12.730 : en:Love Over Life
01:20:35.164 : en:A Warning
01:24:25.185 : en:The Happening/End Titles



★ Первоначально фильм планировали назвать «The Green Effect».

★ По словам режиссёра, 85 процентов действия фильма происходит на улице.

★ Съёмки картины длились 44 дня и стартовали 6 августа 2007. Это ровно 9 лет со дня начала производства «Шестого чувства».

★ Это первый фильм Шьямалана с возрастным рейтингом R — при котором дети до 17 допускаются в кинотеатр только в сопровождении взрослых. Все предыдущие его картины носили рейтинг PG-13.

★ Сцены фильма снимались в точном хронологическом порядке, в котором они распологались в сценарии.

★ Главная роль была написана специально для Марка Уолберга.

★ Это первый фильм, в котором мы не видим М. Найта Шьямалана на экране, но незримо он присутствует на протяжении фильма: он — Джои, сослуживец Альмы, который постоянно ей названивал.





Релиз группы:
загрузка...
Правила, инструкции, FAQ!!!
Торрент  Добавлен [06 дек 2014, 20:51] Скачать торрент
Скачать торрент
[ Размер 29.34 КБ / Просмотров 4 ]

Статус
Проверен 
 
Размер  5.76 ГБ
Приватный: Нет (DHT включён)
.torrent скачан  101
Как залить торрент? | Как скачать Torrent? | Как смотреть и слушать онлайн?  


     Отправить личное сообщение
   
Страница 1 из 1
Показать сообщения за:  Поле сортировки  
Начать новую тему Ответить на тему

   Похожие торренты   Автор   Ответы   Просмотры   Последнее сообщение 
В этой теме нет новых непрочитанных сообщений. Скачать торрент Явление / The Happening (2008) BDRip от HELLYWOOD

в форуме Фантастика, Фэнтези, Размер: 1.69 ГБ, Здоровье: 59%

Anonymous

0
13|22

29
5

27 янв 2014, 10:11

Anonymous Перейти к последнему сообщению

В этой теме нет новых непрочитанных сообщений. Скачать торрент Проверен Явление / The Happening (2008) BDRip 720p | Лицензия

в форуме 720p | 1080p, Размер: 5.65 ГБ, Здоровье: 100%

Гость

0
24|6

54
73

06 дек 2014, 20:45

Гость Перейти к последнему сообщению

В этой теме нет новых непрочитанных сообщений. Скачать торрент Явление / The Happening (М. Найт Шьямалан / M. Night Shyamalan) [2008 г., фантастика, триллер, BDRip]

в форуме Фантастика, Фэнтези, Размер: 2.18 ГБ, Здоровье: 100%

Anonymous

0
56|19

51
1

19 фев 2014, 11:42

Anonymous Перейти к последнему сообщению

В этой теме нет новых непрочитанных сообщений. Скачать торрент Проверен Паранормальное явление: Коллекция / Paranormal Activity: Collection (2007-2014) BDRip-AVC | Лицензия

в форуме Ужасы, Размер: 13.09 ГБ, Здоровье: 100%

Гость

0
27|12

282
16

09 авг 2015, 14:46

Гость Перейти к последнему сообщению

В этой теме нет новых непрочитанных сообщений. Скачать торрент 10 000 лет до н.э. / 10,000 BC (2008) BDRip 1080p | Лицензия

в форуме 720p | 1080p, Размер: 6.71 ГБ, Здоровье: 0%

Anonymous

0
0|0

110
0

09 фев 2014, 21:02

Anonymous Перейти к последнему сообщению



Сейчас этот форум просматривают: нет зарегистрированных пользователей и гости: 1


Вы не можете начинать темы
Вы не можете отвечать на сообщения
Вы не можете редактировать свои сообщения
Вы не можете удалять свои сообщения
Вы не можете добавлять вложения

Перейти:  

!ВНИМАНИЕ!
 Ресурс не предоставляет электронные версии произведений, а занимается лишь коллекционированием и каталогизацией ссылок, присылаемых и публикуемых на форуме нашими читателями. Если вы являетесь правообладателем какого-либо представленного материала и не желаете чтобы ссылка на него находилась в нашем каталоге, свяжитесь с нами и мы незамедлительно удалим её. Файлы для обмена на трекере предоставлены пользователями сайта, и администрация не несёт ответственности за их содержание. Просьба не заливать файлы, защищенные авторскими правами, а также файлы нелегального содержания!