На всех торрентах на трекере установлена скидка на скачивание в размере 100 процентов(а).
 Возможность скачивания торрента НЕ зависит от ограничений при низком ратио, низком аплоаде, требуемом ратио или требуемом аплоаде.


Начать новую тему Ответить на тему
Статистика раздачи
Размер: 5.77 ГБ | Добавлен: 06 дек 2014, 19:05 | Скачали: 158
Сидеров: 55  [0 байт/сек]    Личеров: 2  [0 байт/сек]
Пред. тема | След. тема 

Автор
Сообщение

СообщениеДобавлено: 06 дек 2014, 19:05 

Название: Гаттака
Оригинальное название: Gattaca
Год выхода: 1997
Жанр: фантастика, драма, мелодрама, детектив
Режиссер:Эндрю Никкол
В ролях: Итан Хоук, Джуд Лоу, Ума Турман, Гор Видал, Ксандер Беркли, Джэйн Брук, Элиас Котеас, Майя Рудольф, Элизабет Деннехи, Блэр Андервуд

О фильме:
Добро пожаловать в Гаттаку — совершенный мир будущего. Здесь каждый генетически запрограммирован, и печальная судьба ожидает тех, кто был рожден в любви, а не в лаборатории. Такова судьба Винсента Фримана, молодого человека, получившего при рождении ярлык «не пригоден».
Винсент обладает весомыми недостатками: он подвержен страстям, он поддается эмоциям, и он верит в то, что его мечты сбудутся. Вот почему он покупает личность другого человека, пытаясь обмануть власти и стать уважаемым членом Корпорации Будущего Гаттака.
И когда он уже на пути к свободе, убийство грозит раскрытием его реальной личности. Несмотря на свою невиновность, Винсенту есть что скрывать и есть что терять. Но так трудно остаться в живых, когда в тебе живут два человека…



Выпущено: США
Продолжительность: 01:46:27
Перевод: Дублированный + Оригинал


Кодек: x264
Качество: BDRip 1080p
Видео: 1920x800, 6478 Kbps, 23.976 fps
Аудио #1: AC-3, 6 ch, 640 kbps (Rus)
Аудио #2: AC-3, 6 ch, 640 kbps (Eng)
Субтитры: русские, английские

Общее
Уникальный идентификатор : 219137925991387329950377305445283537529 (0xA4DC6DEAA733D0E5ACBD70BBB1AA2279)
Полное имя : Гаттака.1997.BDRip.1080p.Rus.Eng.mkv
Формат : Matroska
Версия формата : Version 2
Размер файла : 5,77 Гбайт
Продолжительность : 1 ч. 46 м.
Общий поток : 7760 Кбит/сек
Название фильма : Гаттака.1997
Дата кодирования : UTC 2013-05-28 13:40:51
Программа кодирования : mkvmerge v5.8.0 ('No Sleep / Pillow') built on Sep 2 2012 15:37:04
Библиотека кодирования : libebml v1.2.3 + libmatroska v1.3.0

Видео
Идентификатор : 1
Формат : AVC
Формат/Информация : Advanced Video Codec
Профиль формата : High@L4.1
Параметр CABAC формата : Да
Параметр ReFrames формата : 5 кадров
Идентификатор кодека : V_MPEG4/ISO/AVC
Продолжительность : 1 ч. 46 м.
Битрейт : 6478 Кбит/сек
Ширина : 1920 пикселей
Высота : 800 пикселей
Соотношение сторон : 2,40:1
Режим частоты кадров : Постоянный
Частота кадров : 23,976 кадра/сек
Цветовое пространство : YUV
Субдискретизация насыщенности : 4:2:0
Битовая глубина : 8 бит
Тип развёртки : Прогрессивная
Бит/(Пиксели*Кадры) : 0.176
Размер потока : 4,70 Гбайт (82%)
Заголовок : Rip by Boriy
Библиотека кодирования : x264 core 133 r2334 a3ac64b
Настройки программы : cabac=1 / ref=5 / deblock=1:-3:-3 / analyse=0x3:0x113 / me=umh / subme=10 / psy=1 / psy_rd=1.00:0.10 / mixed_ref=1 / me_range=32 / chroma_me=1 / trellis=2 / 8x8dct=1 / cqm=0 / deadzone=21,11 / fast_pskip=0 / chroma_qp_offset=-2 / threads=12 / lookahead_threads=1 / sliced_threads=0 / nr=0 / decimate=0 / interlaced=0 / bluray_compat=0 / constrained_intra=0 / bframes=5 / b_pyramid=2 / b_adapt=2 / b_bias=0 / direct=3 / weightb=1 / open_gop=0 / weightp=2 / keyint=240 / keyint_min=23 / scenecut=40 / intra_refresh=0 / rc=2pass / mbtree=0 / bitrate=6478 / ratetol=1.0 / qcomp=0.60 / qpmin=0 / qpmax=69 / qpstep=4 / cplxblur=20.0 / qblur=0.5 / ip_ratio=1.40 / pb_ratio=1.30 / aq=1:0.80
Язык : English
Default : Да
Forced : Нет

Аудио #1
Идентификатор : 2
Формат : AC-3
Формат/Информация : Audio Coding 3
Расширение режима : CM (complete main)
Параметр Endianness формата : Big
Идентификатор кодека : A_AC3
Продолжительность : 1 ч. 46 м.
Вид битрейта : Постоянный
Битрейт : 640 Кбит/сек
Каналы : 6 каналов
Расположение каналов : Front: L C R, Side: L R, LFE
Частота : 48,0 КГц
Битовая глубина : 16 бит
Метод сжатия : С потерями
Размер потока : 487 Мбайт (8%)
Заголовок : Дубляж
Язык : Russian
Default : Да
Forced : Нет

Аудио #2
Идентификатор : 3
Формат : AC-3
Формат/Информация : Audio Coding 3
Расширение режима : CM (complete main)
Параметр Endianness формата : Big
Идентификатор кодека : A_AC3
Продолжительность : 1 ч. 46 м.
Вид битрейта : Постоянный
Битрейт : 640 Кбит/сек
Каналы : 6 каналов
Расположение каналов : Front: L C R, Side: L R, LFE
Частота : 48,0 КГц
Битовая глубина : 16 бит
Метод сжатия : С потерями
Размер потока : 487 Мбайт (8%)
Заголовок : Оригинал
Язык : English
Default : Нет
Forced : Нет

Текст #1
Идентификатор : 4
Формат : UTF-8
Идентификатор кодека : S_TEXT/UTF8
Идентификатор кодека/Информация : UTF-8 Plain Text
Язык : Russian
Default : Нет
Forced : Нет

Текст #2
Идентификатор : 5
Формат : UTF-8
Идентификатор кодека : S_TEXT/UTF8
Идентификатор кодека/Информация : UTF-8 Plain Text
Язык : English
Default : Нет
Forced : Нет

Меню
00:00:00.000 : :Chapter 1
00:07:39.083 : :Chapter 2
00:10:58.491 : :Chapter 3
00:18:49.711 : :Chapter 4
00:23:40.210 : :Chapter 5
00:31:38.730 : :Chapter 6
00:37:20.947 : :Chapter 7
00:43:47.541 : :Chapter 8
00:48:39.207 : :Chapter 9
00:56:10.867 : :Chapter 10
01:03:50.409 : :Chapter 11
01:08:56.257 : :Chapter 12
01:17:00.949 : :Chapter 13
01:22:14.387 : :Chapter 14
01:28:35.518 : :Chapter 15
01:34:10.728 : :Chapter 16
загрузка...
Правила, инструкции, FAQ!!!
Торрент  Добавлен [06 дек 2014, 19:05] Скачать торрент
Скачать торрент
[ Размер 29.37 КБ / Просмотров 11 ]

Статус
Проверен 
 
Размер  5.77 ГБ
Приватный: Нет (DHT включён)
.torrent скачан  158
Как залить торрент? | Как скачать Torrent? | Как смотреть и слушать онлайн?  


     Отправить личное сообщение
   
Страница 1 из 1
Показать сообщения за:  Поле сортировки  
Начать новую тему Ответить на тему

   Похожие торренты   Автор   Ответы   Просмотры   Последнее сообщение 
В этой теме нет новых непрочитанных сообщений. Скачать торрент Проверен Гаттака / Gattaca (1997) BDRip-AVC | D, P, A

в форуме Фантастика, Фэнтези, Размер: 3.68 ГБ, Здоровье: 100%

Anonymous

0
33|3

67
325

06 дек 2014, 19:09

Anonymous Перейти к последнему сообщению

В этой теме нет новых непрочитанных сообщений. Скачать торрент Проверен [iPad] Гаттака / Gattaca (Эндрю Никкол / Andrew Niccol) [1997, фантастика, триллер, BDRip, 1024x] (DUB | MVO | AVO | Original)

в форуме Фильмы для iPod, iPhone, iPad, Размер: 2.45 ГБ, Здоровье: 100%

Anonymous

0
23|7

51
0

14 май 2015, 00:03

Anonymous Перейти к последнему сообщению

В этой теме нет новых непрочитанных сообщений. Скачать торрент Проверен Гаттака / Gattaca (1997) HDRip

в форуме Фантастика, Фэнтези, Размер: 1.48 ГБ, Здоровье: 100%

Anonymous

0
198|5

77
1353

06 дек 2014, 19:03

Anonymous Перейти к последнему сообщению

В этой теме нет новых непрочитанных сообщений. Скачать торрент Проверен Игра / The Game (1997) BDRip 1080p

в форуме 720p | 1080p, Размер: 5.77 ГБ, Здоровье: 100%

Гость

0
128|35

15
136

13 ноя 2016, 22:51

Гость Перейти к последнему сообщению

В этой теме нет новых непрочитанных сообщений. Скачать торрент Проверен Горбун / Le Bossu (1997) BDRip 1080p

в форуме 720p | 1080p, Размер: 15.78 ГБ, Здоровье: 69%

Anonymous

0
29|42

154
15

14 июн 2015, 22:25

Anonymous Перейти к последнему сообщению



Сейчас этот форум просматривают: нет зарегистрированных пользователей и гости: 1


Вы не можете начинать темы
Вы не можете отвечать на сообщения
Вы не можете редактировать свои сообщения
Вы не можете удалять свои сообщения
Вы не можете добавлять вложения

Перейти:  

!ВНИМАНИЕ!
 Ресурс не предоставляет электронные версии произведений, а занимается лишь коллекционированием и каталогизацией ссылок, присылаемых и публикуемых на форуме нашими читателями. Если вы являетесь правообладателем какого-либо представленного материала и не желаете чтобы ссылка на него находилась в нашем каталоге, свяжитесь с нами и мы незамедлительно удалим её. Файлы для обмена на трекере предоставлены пользователями сайта, и администрация не несёт ответственности за их содержание. Просьба не заливать файлы, защищенные авторскими правами, а также файлы нелегального содержания!