На всех торрентах на трекере установлена скидка на скачивание в размере 100 процентов(а).
 Возможность скачивания торрента НЕ зависит от ограничений при низком ратио, низком аплоаде, требуемом ратио или требуемом аплоаде.


Начать новую тему Ответить на тему
Статистика раздачи
Размер: 11.25 ГБ | Добавлен: 06 дек 2014, 18:45 | Скачали: 14
Сидеров: 9  [0 байт/сек]    Личеров: 1  [0 байт/сек]
Пред. тема | След. тема 

Автор
Сообщение

СообщениеДобавлено: 06 дек 2014, 18:45 

Название: Отточенное лезвие
Оригинальное название: Sling Blade
Год выхода: 1996
Жанр: Драма
Режиссер: Билли Боб Торнтон
В ролях: Билли Боб Торнтон, Дуайт Йоакам, Роберт Дювалл, Дж.Т. Уолш, Джон Риттер, Лукас Блэк, Натали Кэнердей, Джеймс Хэмптон, Рик Дайал, Брент Бриско
О фильме:
Карл после совершенного им жестокого преступления провел двадцать пять лет в психиатрической клинике. Возвратившись в город своей молодости, в один из южных штатов Америки, он ведет себя спокойно и разумно. Это помогает ему найти работу и подружиться с мальчиком и его матерью-вдовой. Однако появление отвратительного и грубого любовника этой женщины ставит Карла перед мучительным выбором и ведет к резким переменам в жизни всех, вовлеченных в эту историю.

Выпущено: США / Miramax Films, Shooting Gallery
Продолжительность: 02:14:40
Перевод: Профессиональный многоголосый

Кодек: MPEG-4 AVC
Качество: BDRip 1080p
Видео: 1920x1040, 23.976 fps, 10040 kbps
Звук:
Russian: AC3, 640 Kbps (6 ch) Профессиональный многоголосый (West Video)
Russian: AC3, 640 Kbps (6 ch) Профессиональный многоголосый (Премьер)
English: AC3, 640 kb/s (6 ch) Original
Субтитры: Russian, Ukrainian, English
Семпл
Общее
Уникальный идентификатор : 251625037137189319071690560197636627010 (0xBD4D38292832991F8194193867439A42)
Полное имя : Sling.Blade.1996.х264.BDRip.1080p.mkv
Формат : Matroska
Версия формата : Version 2
Размер файла : 11,2 Гбайт
Продолжительность : 2 ч. 14 м.
Общий поток : 12,0 Мбит/сек
Название фильма : ☭WIDDER☭
Дата кодирования : UTC 2013-03-08 10:17:12
Программа кодирования : mkvmerge v4.5.0 ('Speed of Light') сборка от Feb 1 2011 02:10:32
Библиотека кодирования : libebml v1.2.0 + libmatroska v1.1.0

Видео
Идентификатор : 1
Формат : AVC
Формат/Информация : Advanced Video Codec
Профиль формата : High@L4.1
Параметр CABAC формата : Да
Параметр ReFrames формата : 4 кадра
Идентификатор кодека : V_MPEG4/ISO/AVC
Продолжительность : 2 ч. 14 м.
Битрейт : 10,0 Мбит/сек
Ширина : 1920 пикселей
Высота : 1040 пикселей
Соотношение сторон : 1,85:1
Режим частоты кадров : Постоянный
Частота кадров : 23,976 кадра/сек
Цветовое пространство : YUV
Субдискретизация насыщенности : 4:2:0
Битовая глубина : 8 бит
Тип развёртки : Прогрессивная
Бит/(Пиксели*Кадры) : 0.210
Размер потока : 9,22 Гбайт (82%)
Заголовок : Отточенное лезвие / Sling Blade (1996)
Библиотека кодирования : x264 core 129 r2245 bc13772
Настройки программы : cabac=1 / ref=4 / deblock=1:-3:-3 / analyse=0x3:0x133 / me=umh / subme=11 / psy=1 / psy_rd=1.20:0.00 / mixed_ref=1 / me_range=48 / chroma_me=1 / trellis=2 / 8x8dct=1 / cqm=0 / deadzone=21,11 / fast_pskip=0 / chroma_qp_offset=-2 / threads=12 / lookahead_threads=2 / sliced_threads=0 / nr=0 / decimate=1 / interlaced=0 / bluray_compat=0 / constrained_intra=0 / bframes=6 / b_pyramid=2 / b_adapt=2 / b_bias=0 / direct=3 / weightb=1 / open_gop=0 / weightp=2 / keyint=240 / keyint_min=23 / scenecut=40 / intra_refresh=0 / rc=2pass / mbtree=0 / bitrate=10040 / ratetol=1.0 / qcomp=0.60 / qpmin=0 / qpmax=69 / qpstep=4 / cplxblur=20.0 / qblur=0.5 / ip_ratio=1.40 / pb_ratio=1.30 / aq=2:0.90
Язык : English
Default : Да
Forced : Нет

Аудио #1
Идентификатор : 2
Формат : AC-3
Формат/Информация : Audio Coding 3
Расширение режима : CM (complete main)
Параметр Endianness формата : Big
Идентификатор кодека : A_AC3
Продолжительность : 2 ч. 14 м.
Вид битрейта : Постоянный
Битрейт : 640 Кбит/сек
Каналы : 6 каналов
Расположение каналов : Front: L C R, Side: L R, LFE
Частота : 48,0 КГц
Битовая глубина : 16 бит
Метод сжатия : С потерями
Размер потока : 616 Мбайт (5%)
Заголовок : AC3, 640 Kbps (6 ch) (West Video)
Язык : Russian
Default : Да
Forced : Нет

Аудио #2
Идентификатор : 3
Формат : AC-3
Формат/Информация : Audio Coding 3
Расширение режима : CM (complete main)
Параметр Endianness формата : Big
Идентификатор кодека : A_AC3
Продолжительность : 2 ч. 14 м.
Вид битрейта : Постоянный
Битрейт : 640 Кбит/сек
Каналы : 6 каналов
Расположение каналов : Front: L C R, Side: L R, LFE
Частота : 48,0 КГц
Битовая глубина : 16 бит
Метод сжатия : С потерями
Размер потока : 616 Мбайт (5%)
Заголовок : AC3, 640 Kbps (6 ch) (Премьер)
Язык : Russian
Default : Нет
Forced : Нет

Аудио #3
Идентификатор : 4
Формат : AC-3
Формат/Информация : Audio Coding 3
Расширение режима : CM (complete main)
Параметр Endianness формата : Big
Идентификатор кодека : A_AC3
Продолжительность : 2 ч. 14 м.
Вид битрейта : Постоянный
Битрейт : 640 Кбит/сек
Каналы : 6 каналов
Расположение каналов : Front: L C R, Side: L R, LFE
Частота : 48,0 КГц
Битовая глубина : 16 бит
Метод сжатия : С потерями
Размер потока : 616 Мбайт (5%)
Заголовок : AC3, 640 kb/s (6 ch) Original
Язык : English
Default : Нет
Forced : Нет

Текст #1
Идентификатор : 5
Формат : UTF-8
Идентификатор кодека : S_TEXT/UTF8
Идентификатор кодека/Информация : UTF-8 Plain Text
Язык : Russian
Default : Нет
Forced : Нет

Текст #2
Идентификатор : 6
Формат : UTF-8
Идентификатор кодека : S_TEXT/UTF8
Идентификатор кодека/Информация : UTF-8 Plain Text
Язык : Ukrainian
Default : Нет
Forced : Нет

Текст #3
Идентификатор : 7
Формат : UTF-8
Идентификатор кодека : S_TEXT/UTF8
Идентификатор кодека/Информация : UTF-8 Plain Text
Язык : English
Default : Нет
Forced : Нет

Меню
00:00:00.000 : en:00:00:00.000
00:07:50.679 : en:00:07:50.679
00:17:35.513 : en:00:17:35.513
00:21:16.233 : en:00:21:16.233
00:24:55.327 : en:00:24:55.327
00:29:24.054 : en:00:29:24.054
00:35:15.363 : en:00:35:15.363
00:39:54.309 : en:00:39:54.309
00:44:26.539 : en:00:44:26.539
00:52:27.728 : en:00:52:27.728
00:59:04.249 : en:00:59:04.249
01:04:23.985 : en:01:04:23.985
01:12:31.973 : en:01:12:31.973
01:16:52.566 : en:01:16:52.566
01:22:23.897 : en:01:22:23.897
01:26:25.514 : en:01:26:25.514
01:31:05.960 : en:01:31:05.960
01:34:54.439 : en:01:34:54.439
01:37:36.601 : en:01:37:36.601
01:43:43.092 : en:01:43:43.092
01:51:29.808 : en:01:51:29.808
01:57:15.654 : en:01:57:15.654
02:01:28.698 : en:02:01:28.698
02:06:43.554 : en:02:06:43.554
02:10:13.431 : en:02:10:13.431
____________________________________________
x264 [info]: frame I:923 Avg QP:19.28 size:239674
x264 [info]: frame P:40353 Avg QP:21.64 size: 99285
x264 [info]: frame B:152452 Avg QP:23.84 size: 38747




Релиз от:
загрузка...
Правила, инструкции, FAQ!!!
Торрент  Добавлен [06 дек 2014, 18:45] Скачать торрент
Скачать торрент
[ Размер 56.75 КБ / Просмотров 4 ]

Статус
Проверен 
 
Размер  11.25 ГБ
Приватный: Нет (DHT включён)
.torrent скачан  14
Как залить торрент? | Как скачать Torrent? | Как смотреть и слушать онлайн?  


     Отправить личное сообщение
   
Страница 1 из 1
Показать сообщения за:  Поле сортировки  
Начать новую тему Ответить на тему

   Похожие торренты   Автор   Ответы   Просмотры   Последнее сообщение 
В этой теме нет новых непрочитанных сообщений. Скачать торрент Проверен Отточенное лезвие / Sling Blade (1996) BDRip

в форуме Драмы, Мелодрамы, Размер: 2.18 ГБ, Здоровье: 100%

Anonymous

0
18|0

49
205

06 дек 2014, 18:42

Anonymous Перейти к последнему сообщению

В этой теме нет новых непрочитанных сообщений. Скачать торрент Проверен (Rock/Alternative) ЛЕЗВИЕ - Лезвие 1997, MP3 , 256-320 kbps

в форуме Русский Рок, Размер: 106.47 МБ, Здоровье: 0%

Anonymous

0
0|0

2
0

21 авг 2016, 14:13

Anonymous Перейти к последнему сообщению

В этой теме нет новых непрочитанных сообщений. Скачать торрент Проверен (Heavy Metal) Tokyo Blade - Tokyo Blade / Night Of The Blade [Netherlands (Japan), RR 34 9883/RR 34 9826, 1985/1984] - 1983/1984, FLAC (image+.cue), lossless

в форуме Heavy, Power, Progressive (Metal), Размер: 552.29 МБ, Здоровье: 0%

Anonymous

0
0|0

3
0

11 окт 2016, 21:59

Anonymous Перейти к последнему сообщению

В этой теме нет новых непрочитанных сообщений. Скачать торрент Проверен Стиратель / Eraser (1996) BDRip 1080p

в форуме 720p | 1080p, Размер: 6.21 ГБ, Здоровье: 100%

Anonymous

0
10|4

32
137

18 сен 2014, 12:57

Anonymous Перейти к последнему сообщению

В этой теме нет новых непрочитанных сообщений. Скачать торрент Проверен На игле / Trainspotting (1996) BDRip 1080p

в форуме 720p | 1080p, Размер: 8.69 ГБ, Здоровье: 100%

Anonymous

0
27|5

53
124

06 сен 2014, 22:16

Anonymous Перейти к последнему сообщению



Сейчас этот форум просматривают: нет зарегистрированных пользователей и гости: 1


Вы не можете начинать темы
Вы не можете отвечать на сообщения
Вы не можете редактировать свои сообщения
Вы не можете удалять свои сообщения
Вы не можете добавлять вложения

Перейти:  

!ВНИМАНИЕ!
 Ресурс не предоставляет электронные версии произведений, а занимается лишь коллекционированием и каталогизацией ссылок, присылаемых и публикуемых на форуме нашими читателями. Если вы являетесь правообладателем какого-либо представленного материала и не желаете чтобы ссылка на него находилась в нашем каталоге, свяжитесь с нами и мы незамедлительно удалим её. Файлы для обмена на трекере предоставлены пользователями сайта, и администрация не несёт ответственности за их содержание. Просьба не заливать файлы, защищенные авторскими правами, а также файлы нелегального содержания!