На всех торрентах на трекере установлена скидка на скачивание в размере 100 процентов(а).
 Возможность скачивания торрента НЕ зависит от ограничений при низком ратио, низком аплоаде, требуемом ратио или требуемом аплоаде.


Начать новую тему Ответить на тему
Статистика раздачи
Размер: 7.74 ГБ | Добавлен: 04 дек 2014, 17:34 | Скачали: 118
Сидеров: 173  [0 байт/сек]    Личеров: 15  [0 байт/сек]
Пред. тема | След. тема 

Автор
Сообщение

СообщениеДобавлено: 04 дек 2014, 17:34 

Год выпуска: 2011
Страна: США
Жанр: комедия, криминал
Продолжительность: 01:37:44
Перевод: Профессиональный (дублированный)
Субтитры: Russian (UTF-8), Russian (UTF-8), English (UTF-8)

Режиссер: Сет Гордон
В ролях: Джейсон Бейтман / Jason Bateman (Nick Hendricks), Чарли Дэй / Charlie Day (Dale Arbus), Джейсон Судейкис / Jason Sudeikis (Kurt Buckman), Кевин Спейси / Kevin Spacey (Dave Harken), Дженнифер Энистон / Jennifer Aniston (Dr. Julia Harris, D.D.S., $ 6 000 000 ), Колин Фаррелл / Colin Farrell (Bobby Pellitt), Джейми Фокс / Jamie Foxx (Dean «MF» Jones), Джули Боуэн / Julie Bowen (Rhonda Harken)
Описание: Единственное, что могло бы сделать трудовые будни Ника, Курта и Дэйла чуть более выносимыми — возможность стереть в порошок их несносное начальство.

Уволиться с работы — не вариант, поэтому, изрядно выпив и воспользовавшись советами бывшего преступника, трое друзей разрабатывают витиеватый и, казалось бы, безупречный план, как помочь друг другу навсегда избавиться от осточертевших работодателей.

Проблема лишь в том, что даже самые продуманные планы безупречны ровно настолько, насколько умны разработавшие их люди.


Рейтинг MPAA: Лицам до 17 лет обязательно присутствие взрослого




Качество: BDRip
Формат: MKV
Видео кодек: AVC
Аудио кодеk: AC3
Видео: 1920x800 (2.40:1), 23.976 fps, AVC, 10.3 Mbps
Аудио: Аудио #1: AC3, 640 Kbps, 48.0 KHz, 6 ch RUS Dub
Аудио #2: AC3, 448 Kbps, 48.0 KHz, 6 ch ENG



x264 [info]: frame I:1165 Avg QP:18.64 size:180148
x264 [info]: frame P:28038 Avg QP:20.48 size: 85168
x264 [info]: frame B:111384 Avg QP:22.05 size: 44097

General
Unique ID : 210675606606689998927958028148946792798 (0x9E7EA55BC5968479A808723096A8715E)
Complete name : Nesnosnye.bossy.2011.1080p.BDRip.mkv
Format : Matroska
Format version : Version 4 / Version 2
File size : 7.74 GiB
Duration : 1h 37mn
Overall bit rate : 11.3 Mbps
Encoded date : UTC 2014-07-07 00:47:20
Writing application : mkvmerge v7.0.0 ('Where We Going') 64bit built on Jun 9 2014 15:16:27
Writing library : libebml v1.3.0 + libmatroska v1.4.1
DURATION : 01:33:14.360000000
NUMBER_OF_FRAMES : 1840
NUMBER_OF_BYTES : 80065
_STATISTICS_WRITING_APP : mkvmerge v7.0.0 ('Where We Going') 64bit built on Jun 9 2014 15:16:27
_STATISTICS_WRITING_DATE_UTC : 2014-07-07 00:47:20
_STATISTICS_TAGS : BPS DURATION NUMBER_OF_FRAMES NUMBER_OF_BYTES

Video
ID : 1
Format : AVC
Format/Info : Advanced Video Codec
Format profile : High@L4.1
Format settings, CABAC : Yes
Format settings, ReFrames : 5 frames
Codec ID : V_MPEG4/ISO/AVC
Duration : 1h 37mn
Bit rate : 10.3 Mbps
Width : 1 920 pixels
Height : 800 pixels
Display aspect ratio : 2.40:1
Frame rate mode : Constant
Frame rate : 23.976 fps
Color space : YUV
Chroma subsampling : 4:2:0
Bit depth : 8 bits
Scan type : Progressive
Bits/(Pixel*Frame) : 0.278
Stream size : 6.84 GiB (88%)
Writing library : x264 core 142 r2431kMod ac76440
Encoding settings : cabac=1 / ref=5 / deblock=1:-3:-3 / analyse=0x3:0x133 / me=umh / subme=11 / psy=1 / fade_compensate=0.00 / psy_rd=0.90:0.00 / mixed_ref=1 / me_range=32 / chroma_me=1 / trellis=2 / 8x8dct=1 / cqm=0 / deadzone=21,11 / fast_pskip=0 / chroma_qp_offset=-2 / threads=6 / lookahead_threads=1 / sliced_threads=0 / nr=0 / decimate=1 / interlaced=0 / bluray_compat=0 / constrained_intra=0 / fgo=0 / bframes=9 / b_pyramid=2 / b_adapt=2 / b_bias=0 / direct=3 / weightb=1 / open_gop=0 / weightp=2 / keyint=250 / keyint_min=23 / scenecut=40 / intra_refresh=0 / rc=2pass / mbtree=0 / bitrate=10250 / ratetol=1.0 / qcomp=0.65 / qpmin=0 / qpmax=69 / qpstep=4 / cplxblur=20.0 / qblur=0.5 / ip_ratio=1.30 / pb_ratio=1.20 / aq=1:0.70
Language : English
Default : Yes
Forced : No
DURATION : 01:37:43.650000000
NUMBER_OF_FRAMES : 140587
NUMBER_OF_BYTES : 7509529840
_STATISTICS_WRITING_APP : mkvmerge v7.0.0 ('Where We Going') 64bit built on Jun 9 2014 15:16:27
_STATISTICS_WRITING_DATE_UTC : 2014-07-07 00:47:20
_STATISTICS_TAGS : BPS DURATION NUMBER_OF_FRAMES NUMBER_OF_BYTES
Matrix coefficients : BT.709

Audio #1
ID : 2
Format : AC-3
Format/Info : Audio Coding 3
Mode extension : CM (complete main)
Format settings, Endianness : Big
Codec ID : A_AC3
Duration : 1h 37mn
Bit rate mode : Constant
Bit rate : 640 Kbps
Channel(s) : 6 channels
Channel positions : Front: L C R, Side: L R, LFE
Sampling rate : 48.0 KHz
Bit depth : 16 bits
Compression mode : Lossy
Stream size : 447 MiB (6%)
Language : Russian
Default : Yes
Forced : No

Audio #2
ID : 3
Format : AC-3
Format/Info : Audio Coding 3
Mode extension : CM (complete main)
Format settings, Endianness : Big
Codec ID : A_AC3
Duration : 1h 37mn
Bit rate mode : Constant
Bit rate : 448 Kbps
Channel(s) : 6 channels
Channel positions : Front: L C R, Side: L R, LFE
Sampling rate : 48.0 KHz
Bit depth : 16 bits
Compression mode : Lossy
Stream size : 313 MiB (4%)
Language : English
Default : No
Forced : No

Text #1
ID : 4
Format : UTF-8
Codec ID : S_TEXT/UTF8
Codec ID/Info : UTF-8 Plain Text
Title : forced
Language : Russian
Default : Yes
Forced : No

Text #2
ID : 5
Format : UTF-8
Codec ID : S_TEXT/UTF8
Codec ID/Info : UTF-8 Plain Text
Language : Russian
Default : No
Forced : No

Text #3
ID : 6
Format : UTF-8
Codec ID : S_TEXT/UTF8
Codec ID/Info : UTF-8 Plain Text
Language : English
Default : No
Forced : No

Menu
00:00:00.000 : en:00:00:00.000
00:09:28.485 : en:00:09:28.485
00:19:51.690 : en:00:19:51.690
00:28:23.619 : en:00:28:23.619
00:38:16.294 : en:00:38:16.294
00:49:27.673 : en:00:49:27.673
00:57:18.352 : en:00:57:18.352
01:07:44.352 : en:01:07:44.352
01:17:33.190 : en:01:17:33.190
01:27:51.516 : en:01:27:51.516
★ Роль, которую исполняет Джейсон Бейтман, была написана сценаристами специально для него.

★ Очки, которые носит героиня Дженнифер Энистон, сделаны для неё в единственном экземпляре на заказ.

★ Персонаж Чарли Дэя (Дэйл Арбас) часто вспоминает сериал «Закон и порядок», сам Чарли играл в одном эпизоде этого сериала.

★ На роль Джулии рассматривались Наоми Уоттс и Сара Джессика Паркер.

★ Фильм, который смотрит Дейл Арбус во время слежки, «Дневник памяти» (2004).

★ Дженнифер Энистон снималась в фильме в тёмном парике, так как режиссёр счёл, что её обычный образ «слишком лёгкий» для роли стервозного босса. В отличие от большинства других актёров в фильме, Энистон не импровизирует в своей роли, а играет её точно по сценарию.

★ Герою предлагают уволить профессора Ксавьера, который ездит на коляске. Это является отсылкой к профессору Ксавьеру из фильма «Люди Икс» (2000).

★ Героям предлагают заснять на пленку, как герой Кевина Спейси признается в убийстве. Этот эпизод является отсылкой к другому фильму с участием Кевина Спейси — «Жизнь Дэвида Гейла» (2003).



Релиз от:
загрузка...
Правила, инструкции, FAQ!!!
Торрент  Добавлен [04 дек 2014, 17:34] Скачать торрент
Скачать торрент
[ Размер 39.26 КБ / Просмотров 4 ]

Статус
Проверен 
 
Размер  7.74 ГБ
Приватный: Нет (DHT включён)
.torrent скачан  118
Как залить торрент? | Как скачать Torrent? | Как смотреть и слушать онлайн?  


     Отправить личное сообщение
   
Страница 1 из 1
Показать сообщения за:  Поле сортировки  
Начать новую тему Ответить на тему

   Похожие торренты   Автор   Ответы   Просмотры   Последнее сообщение 
В этой теме нет новых непрочитанных сообщений. Скачать торрент Проверен Несносные боссы / Horrible Bosses (2011) BDRip 720p | Театральная версия

в форуме 720p | 1080p, Размер: 3.38 ГБ, Здоровье: 100%

Гость

0
454|38

21
351

04 дек 2014, 17:32

Гость Перейти к последнему сообщению

В этой теме нет новых непрочитанных сообщений. Скачать торрент Проверен Несносные боссы / Horrible Bosses (2011) BDRip | Лицензия

в форуме Комедии, Размер: 1.45 ГБ, Здоровье: 100%

Гость

0
381|8

58
86

04 дек 2014, 17:28

Гость Перейти к последнему сообщению

В этой теме нет новых непрочитанных сообщений. Скачать торрент Проверен [iPad] Несносные боссы / Horrible Bosses (Сет Гордон / Seth Gordon ) [2011, США, Комедия, криминал, BDRip, SD (576p)] [Theatrical version] DUB + Original + sub (rus, eng)

в форуме Фильмы для iPod, iPhone, iPad, Размер: 1.67 ГБ, Здоровье: 100%

Гость

0
56|19

24
0

12 май 2015, 00:07

Гость Перейти к последнему сообщению

В этой теме нет новых непрочитанных сообщений. Скачать торрент Проверен Несносные боссы 2 / Horrible Bosses 2 (2014) WEBRip 720p |Чистый звук

в форуме 720p | 1080p, Размер: 2.4 ГБ, Здоровье: 100%

Гость

0
2076|289

36
3019

19 дек 2014, 21:52

Гость Перейти к последнему сообщению

В этой теме нет новых непрочитанных сообщений. Скачать торрент Проверен [iPad] Несносные боссы 2 / Horrible Bosses 2 (Шон Андерс / Sean Anders ) [2014, США, Комедия, WEB-DLRip, SD (576p)] DUB + Original

в форуме Фильмы для iPod, iPhone, iPad, Размер: 1.9 ГБ, Здоровье: 100%

Гость

0
57|19

21
1

11 май 2015, 01:39

Гость Перейти к последнему сообщению



Сейчас этот форум просматривают: нет зарегистрированных пользователей и гости: 1


Вы не можете начинать темы
Вы не можете отвечать на сообщения
Вы не можете редактировать свои сообщения
Вы не можете удалять свои сообщения
Вы не можете добавлять вложения

Перейти:  

!ВНИМАНИЕ!
 Ресурс не предоставляет электронные версии произведений, а занимается лишь коллекционированием и каталогизацией ссылок, присылаемых и публикуемых на форуме нашими читателями. Если вы являетесь правообладателем какого-либо представленного материала и не желаете чтобы ссылка на него находилась в нашем каталоге, свяжитесь с нами и мы незамедлительно удалим её. Файлы для обмена на трекере предоставлены пользователями сайта, и администрация не несёт ответственности за их содержание. Просьба не заливать файлы, защищенные авторскими правами, а также файлы нелегального содержания!