На всех торрентах на трекере установлена скидка на скачивание в размере 100 процентов(а).
 Возможность скачивания торрента НЕ зависит от ограничений при низком ратио, низком аплоаде, требуемом ратио или требуемом аплоаде.


Начать новую тему Ответить на тему
Статистика раздачи
Размер: 6.27 ГБ | Добавлен: 04 дек 2014, 00:16 | Скачали: 1632
Сидеров: 1263  [0 байт/сек]    Личеров: 218  [0 байт/сек]
Пред. тема | След. тема 

Автор
Сообщение

СообщениеДобавлено: 04 дек 2014, 00:16 

Название: Superнянь
Оригинальное название: Babysitting
Год выхода: 2014
Жанр: комедия
Режиссер: Николас Бенаму, Филипп Лашо
В ролях: Филипп Лашо, Алиса Давид, Венсан Дезанья, Тарек Будали, Жюльен Аррути, Грегуар Людиг, Давид Марсе, Жерар Жюньо, Клотильда Куро, Филипп Дюкен
О фильме: Клэр и Марк уезжают на все выходные, оставив своего сына под присмотром «хорошего парня» Фрэнка. На следующее утро парочку будит звонок полицейского, который сообщает, что их дом перевернут верх дном, а сын исчез! На месте происшествия полиция находит камеру, на которой запечатлены все события предыдущей ночи. Только посмотрев видео родители смогут узнать куда исчез их сын и что случилось в эту ночь… когда Фрэнк праздновал 30-летие.

Выпущено: Франция
Продолжительность: 01:24:03
Перевод: Профессиональный (полное дублирование) - Чистый звук

Качество: BDRip 1080p
Формат: MKV
Видео: MPEG4/AVC, 1920х1040 (1.85:1), 9655 Кбит/сек, 23.976 кадра/сек
Аудио 1: AC3, 2 канала, 384 Кбит/сек | Русский
Аудио 2: AC3, 6 каналов, 640 Кбит/сек | Французский
Навигация по главам: Есть
Общее
Уникальный идентификатор : 192963705649292982118354670252920301287 (0x912B7538367C4BB89DABA4B6738E66E7)
Полное имя : Babysitting. (2014) BDRip 1080p.mkv
Формат : Matroska
Версия формата : Version 2
Размер файла : 6,27 Гбайт
Продолжительность : 1 ч. 24 м.
Общий поток : 10,7 Мбит/сек
Название фильма : Babysitting. 2014
Дата кодирования : UTC 2014-12-02 14:34:11
Программа кодирования : mkvmerge v5.8.0 ('No Sleep / Pillow') built on Sep 2 2012 15:37:04
Библиотека кодирования : libebml v1.2.3 + libmatroska v1.3.0
Видео
Идентификатор : 1
Формат : AVC
Формат/Информация : Advanced Video Codec
Профиль формата : High@L4.1
Параметр CABAC формата : Да
Параметр ReFrames формата : 4 кадра
Идентификатор кодека : V_MPEG4/ISO/AVC
Продолжительность : 1 ч. 24 м.
Битрейт : 9655 Кбит/сек
Ширина : 1920 пикселей
Высота : 1040 пикселей
Соотношение сторон : 1,85:1
Режим частоты кадров : Постоянный
Частота кадров : 23,976 кадра/сек
Цветовое пространство : YUV
Субдискретизация насыщенности : 4:2:0
Битовая глубина : 8 бит
Тип развёртки : Прогрессивная
Бит/(Пиксели*Кадры) : 0.202
Размер потока : 5,54 Гбайт (88%)
Заголовок : Goatlove
Библиотека кодирования : x264 core 142 r2453 ea0ca51
Настройки программы : cabac=1 / ref=4 / deblock=1:0:0 / analyse=0x3:0x133 / me=umh / subme=8 / psy=1 / psy_rd=1.00:0.00 / mixed_ref=1 / me_range=16 / chroma_me=1 / trellis=1 / 8x8dct=1 / cqm=0 / deadzone=21,11 / fast_pskip=0 / chroma_qp_offset=-2 / threads=12 / lookahead_threads=2 / sliced_threads=0 / nr=0 / decimate=1 / interlaced=0 / bluray_compat=0 / constrained_intra=0 / bframes=3 / b_pyramid=2 / b_adapt=2 / b_bias=0 / direct=3 / weightb=1 / open_gop=0 / weightp=2 / keyint=250 / keyint_min=23 / scenecut=40 / intra_refresh=0 / rc_lookahead=50 / rc=2pass / mbtree=1 / bitrate=9655 / ratetol=1.0 / qcomp=0.60 / qpmin=0 / qpmax=69 / qpstep=4 / cplxblur=20.0 / qblur=0.5 / ip_ratio=1.40 / aq=1:1.00
Язык : French
Default : Да
Forced : Нет
Аудио #1
Идентификатор : 2
Формат : AC-3
Формат/Информация : Audio Coding 3
Расширение режима : CM (complete main)
Параметр Endianness формата : Big
Идентификатор кодека : A_AC3
Продолжительность : 1 ч. 24 м.
Вид битрейта : Постоянный
Битрейт : 384 Кбит/сек
Каналы : 2 канала
Расположение каналов : Front: L R
Частота : 48,0 КГц
Битовая глубина : 16 бит
Метод сжатия : С потерями
Размер потока : 231 Мбайт (4%)
Заголовок : D | Line
Язык : Russian
Default : Да
Forced : Нет
Аудио #2
Идентификатор : 3
Формат : AC-3
Формат/Информация : Audio Coding 3
Расширение режима : CM (complete main)
Параметр Endianness формата : Big
Идентификатор кодека : A_AC3
Продолжительность : 1 ч. 24 м.
Вид битрейта : Постоянный
Битрейт : 640 Кбит/сек
Каналы : 6 каналов
Расположение каналов : Front: L C R, Side: L R, LFE
Частота : 48,0 КГц
Битовая глубина : 16 бит
Метод сжатия : С потерями
Размер потока : 385 Мбайт (6%)
Заголовок : Original
Язык : Russian
Default : Нет
Forced : Нет
Меню
00:00:00.000 : en:00:00:00.000
00:05:06.389 : en:00:05:06.389
00:08:33.763 : en:00:08:33.763
00:12:35.129 : en:00:12:35.129
00:16:14.223 : en:00:16:14.223
00:19:16.197 : en:00:19:16.197
00:25:00.708 : en:00:25:00.708
00:30:43.800 : en:00:30:43.800
00:34:40.620 : en:00:34:40.620
00:39:10.223 : en:00:39:10.223
00:44:48.519 : en:00:44:48.519
00:48:36.622 : en:00:48:36.622
00:52:12.379 : en:00:52:12.379
00:57:19.853 : en:00:57:19.853
00:59:41.745 : en:00:59:41.745
01:02:33.041 : en:01:02:33.041
01:08:12.672 : en:01:08:12.672
01:12:18.251 : en:01:12:18.251
01:15:11.674 : en:01:15:11.674
01:20:09.680 : en:01:20:09.680


Релиз от:
загрузка...
Правила, инструкции, FAQ!!!
Торрент  Добавлен [04 дек 2014, 00:16] Скачать торрент
Скачать торрент
[ Размер 16.33 КБ / Просмотров 11 ]

Статус
Проверен 
 
Размер  6.27 ГБ
Приватный: Нет (DHT включён)
.torrent скачан  1632
Как залить торрент? | Как скачать Torrent? | Как смотреть и слушать онлайн?  


     Отправить личное сообщение
   
Страница 1 из 1
Показать сообщения за:  Поле сортировки  
Начать новую тему Ответить на тему

   Похожие торренты   Автор   Ответы   Просмотры   Последнее сообщение 
В этой теме нет новых непрочитанных сообщений. Скачать торрент Проверен Superнянь / Babysitting (2014) BDRip 720p | Чистый звук

в форуме 720p | 1080p, Размер: 4.59 ГБ, Здоровье: 100%

Гость

0
1435|220

107
5746

02 дек 2014, 17:15

Гость Перейти к последнему сообщению

В этой теме нет новых непрочитанных сообщений. Скачать торрент Проверен Superнянь / Babysitting (2014) HDRip | Чистый звук

в форуме Комедии, Размер: 1.37 ГБ, Здоровье: ???%

Гость

0
0|2

74
1

02 дек 2014, 17:18

Гость Перейти к последнему сообщению

В этой теме нет новых непрочитанных сообщений. Скачать торрент Проверен Рио 2 / Rio 2 (2014) BDRip 1080p | Чистый звук

в форуме 720p | 1080p, Размер: 8.19 ГБ, Здоровье: 0%

Anonymous

0
0|0

267
1

28 июн 2014, 21:28

Anonymous Перейти к последнему сообщению

В этой теме нет новых непрочитанных сообщений. Ной / Noah (2014) BDRip 1080p | Чистый звук

в форуме Новинки кино, Размер: 10.2 ГБ, Здоровье: 0%

Anonymous

0
0|0

277
1

07 июл 2014, 15:19

Anonymous Перейти к последнему сообщению

В этой теме нет новых непрочитанных сообщений. Скачать торрент Проверен Самба / Samba (2014) BDRip 1080p | Чистый звук

в форуме 720p | 1080p, Размер: 11.71 ГБ, Здоровье: 100%

Гость

0
499|56

94
4336

24 мар 2015, 00:39

Гость Перейти к последнему сообщению



Сейчас этот форум просматривают: нет зарегистрированных пользователей и гости: 3


Вы не можете начинать темы
Вы не можете отвечать на сообщения
Вы не можете редактировать свои сообщения
Вы не можете удалять свои сообщения
Вы не можете добавлять вложения

Перейти:  

!ВНИМАНИЕ!
 Ресурс не предоставляет электронные версии произведений, а занимается лишь коллекционированием и каталогизацией ссылок, присылаемых и публикуемых на форуме нашими читателями. Если вы являетесь правообладателем какого-либо представленного материала и не желаете чтобы ссылка на него находилась в нашем каталоге, свяжитесь с нами и мы незамедлительно удалим её. Файлы для обмена на трекере предоставлены пользователями сайта, и администрация не несёт ответственности за их содержание. Просьба не заливать файлы, защищенные авторскими правами, а также файлы нелегального содержания!