На всех торрентах на трекере установлена скидка на скачивание в размере 100 процентов(а).
 Возможность скачивания торрента НЕ зависит от ограничений при низком ратио, низком аплоаде, требуемом ратио или требуемом аплоаде.


Начать новую тему Ответить на тему
Статистика раздачи
Размер: 7.76 ГБ | Добавлен: 02 дек 2014, 18:45 | Скачали: 50
Сидеров: 31  [0 байт/сек]    Личеров: 6  [0 байт/сек]
Пред. тема | След. тема 

Автор
Сообщение

СообщениеДобавлено: 02 дек 2014, 18:45 

Название: Джей и Молчаливый Боб наносят ответный удар
Оригинальное название: Jay and Silent Bob strike back
Год выхода: 2001
Жанр: комедия
Режиссер: Кевин Смит
В ролях: Джейсон Мьюз, Кевин Смит, Бен Аффлек, Джефф Андерсон, Брайан О'Хэллоран, Шеннон Элизабет, Элиза Душку, Эли Лартер, Дженнифер Швалбах Смит, Уилл Феррелл

О фильме:
Как-то раз в один погожий день небезызвестные Джей и Молчун Боб как всегда подпирали спиной стену бакалейной лавки в Нью-Джерси, и именно там их застало страшное известие, что их персоны, оказывается, лежат в основе комиксов «Пыхарь и Хроник», которые в Голливуде даже собираются экранизировать.

Учитывая, что наша парочка не получила ни цента за то, что их именами нагло воспользовались, прилюдно выставив полными идиотами, Джей и Молчун Боб отправляются на студию «Miramax», дабы восстановить справедливость.




Ограничение по возрасту: 16+
Рейтинг R - Детям до 17 лет обязательно присутствие родителей

Страна: США
Студия: Dimension Films, Miramax Films
Продолжительность: 01:44:27
Перевод: Профессиональный (полное дублирование) | без цензуры

Бюджет: $22 000 000
Маркетинг: $17 000 000
Сборы в США: $30 085 147
Сборы в мире: + $3 703 014 = $33 788 161


Кодек: x264
Качество: BDRip 1080p
Видео: 1920x816 (2.35:1); 9972 Kbps; 23,976 fps; 0,265 bpp
Звук: Russian; AC3; 448 Kbps; CBR; 6 ch
Субтитры: отсутствуют

Общее
Уникальный идентификатор : 185573362892606880492595065988535977459 (0x8B9C213094F7DAE68335A6BC18CA85F3)
Полное имя : C:UsersDimazDesktopJay.and.Silent.Bob.Strike.Back.2001.BDRip.1080p.mkv
Формат : Matroska
Версия формата : Version 4 / Version 2
Размер файла : 7,76 Гбайт
Продолжительность : 1 ч. 44 м.
Общий поток : 10,6 Мбит/сек
Название фильма : Jay and Silent Bob Strike Back 2001 от TorrentIRK
Дата кодирования : UTC 2013-04-17 07:53:17
Программа кодирования : mkvmerge v6.1.0 ('Old Devil') built on Mar 2 2013 14:32:37
Библиотека кодирования : libebml v1.3.0 + libmatroska v1.4.0
Attachment : Yes

Видео
Идентификатор : 1
Формат : AVC
Формат/Информация : Advanced Video Codec
Профиль формата : High@L5.1
Параметр CABAC формата : Да
Параметр ReFrames формата : 8 кадров
Идентификатор кодека : V_MPEG4/ISO/AVC
Продолжительность : 1 ч. 44 м.
Битрейт : 10,2 Мбит/сек
Ширина : 1920 пикселей
Высота : 816 пикселей
Соотношение сторон : 2,35:1
Режим частоты кадров : Постоянный
Частота кадров : 23,976 кадра/сек
Цветовое пространство : YUV
Субдискретизация насыщенности : 4:2:0
Битовая глубина : 8 бит
Тип развёртки : Прогрессивная
Бит/(Пиксели*Кадры) : 0.271
Размер потока : 7,28 Гбайт (94%)
Заголовок : Jay and Silent Bob Strike Back 2001
Библиотека кодирования : x264 core 54
Настройки программы : cabac=1 / ref=5 / deblock=1:-6:-6 / analyse=0x3:0x133 / me=umh / subme=7 / brdo=1 / mixed_ref=1 / me_range=16 / chroma_me=1 / trellis=1 / 8x8dct=1 / cqm=2 / deadzone=21,11 / chroma_qp_offset=0 / threads=3 / nr=0 / decimate=1 / mbaff=0 / bframes=2 / b_pyramid=1 / b_adapt=1 / b_bias=0 / direct=3 / wpredb=1 / bime=1 / keyint=250 / keyint_min=25 / scenecut=40(pre) / rc=2pass / bitrate=10180 / ratetol=1.0 / rceq='blurCplx^(1-qComp)' / qcomp=0.60 / qpmin=10 / qpmax=51 / qpstep=4 / cplxblur=20.0 / qblur=0.5 / ip_ratio=1.40 / pb_ratio=1.30 / zones / aq=1:0.3:15.0
Язык : English
Default : Да
Forced : Нет

Аудио
Идентификатор : 2
Формат : AC-3
Формат/Информация : Audio Coding 3
Расширение режима : CM (complete main)
Параметр Endianness формата : Big
Идентификатор кодека : A_AC3
Продолжительность : 1 ч. 44 м.
Вид битрейта : Постоянный
Битрейт : 448 Кбит/сек
Каналы : 6 каналов
Расположение каналов : Front: L C R, Side: L R, LFE
Частота : 48,0 КГц
Битовая глубина : 16 бит
Метод сжатия : С потерями
Размер потока : 335 Мбайт (4%)
Заголовок : 48 kHz, AC3 5.1 Dolby Digital, 448kbps
Язык : Russian
Default : Да
Forced : Да

загрузка...
Правила, инструкции, FAQ!!!
Торрент  Добавлен [02 дек 2014, 18:45] Скачать торрент
Скачать торрент
[ Размер 20.04 КБ / Просмотров 11 ]

Статус
Проверен 
 
Размер  7.76 ГБ
Приватный: Нет (DHT включён)
.torrent скачан  50
Как залить торрент? | Как скачать Torrent? | Как смотреть и слушать онлайн?  


     Отправить личное сообщение
   
Страница 1 из 1
Показать сообщения за:  Поле сортировки  
Начать новую тему Ответить на тему

   Похожие торренты   Автор   Ответы   Просмотры   Последнее сообщение 
В этой теме нет новых непрочитанных сообщений. Скачать торрент Проверен Джей и молчаливый Боб наносят ответный удар / Jay and Silent Bob Strike Back (2001) BDRip 720p

в форуме 720p | 1080p, Размер: 4.37 ГБ, Здоровье: 100%

Гость

0
32|2

61
109

02 дек 2014, 18:42

Гость Перейти к последнему сообщению

В этой теме нет новых непрочитанных сообщений. Скачать торрент Джей и молчаливый Боб наносят ответный удар / Jay and Silent Bob Strike Back (Кевин Смит / Kevin Smith) [2001 г., пародийная комедия, мелодрама, приключения, BDRip-AVC] Dub

в форуме Комедии, Размер: 2.16 ГБ, Здоровье: 100%

Anonymous

0
37|12

65
0

22 апр 2014, 11:50

Anonymous Перейти к последнему сообщению

В этой теме нет новых непрочитанных сообщений. Скачать торрент Джей и молчаливый Боб наносят ответный удар / Jay And Silent Bob Strike Back (Кевин Смит / Kevin Smith) [2001 г., комедия, приключения, HDRip]

в форуме Комедии, Размер: 746.12 МБ, Здоровье: 100%

Anonymous

0
39|13

45
0

10 фев 2014, 13:06

Anonymous Перейти к последнему сообщению

В этой теме нет новых непрочитанных сообщений. Скачать торрент Проверен Мартышки в космосе: Ответный удар / Space Chimps 2: Zartog Strikes Back (Джон Х. Уильямс / John H. Williams) [2010, мультфильм, фантастика, комедия, приключения, семейный, Blu-ray Disc 1080p] BD3D

в форуме 3D Мультфильмы, Размер: 22.79 ГБ, Здоровье: 100%

Anonymous

0
1|0

6
0

07 сен 2016, 17:35

Anonymous Перейти к последнему сообщению

В этой теме нет новых непрочитанных сообщений. Скачать торрент Проверен Мартышки в космосе: Ответный удар в 3Д / Space Chimps 2: Zartog Strikes Back 3D (Джон Х. Уильямс / John H. Williams) [2010, мультфильм, фантастика, комедия, приключения, BDRip-AVC] Half OverUnder / Вертикальная анаморфная стереопара

в форуме 3D Мультфильмы, Размер: 5.44 ГБ, Здоровье: 100%

Anonymous

0
1|0

9
0

07 сен 2016, 18:07

Anonymous Перейти к последнему сообщению



Сейчас этот форум просматривают: нет зарегистрированных пользователей и гости: 1


Вы не можете начинать темы
Вы не можете отвечать на сообщения
Вы не можете редактировать свои сообщения
Вы не можете удалять свои сообщения
Вы не можете добавлять вложения

Перейти:  

!ВНИМАНИЕ!
 Ресурс не предоставляет электронные версии произведений, а занимается лишь коллекционированием и каталогизацией ссылок, присылаемых и публикуемых на форуме нашими читателями. Если вы являетесь правообладателем какого-либо представленного материала и не желаете чтобы ссылка на него находилась в нашем каталоге, свяжитесь с нами и мы незамедлительно удалим её. Файлы для обмена на трекере предоставлены пользователями сайта, и администрация не несёт ответственности за их содержание. Просьба не заливать файлы, защищенные авторскими правами, а также файлы нелегального содержания!