На всех торрентах на трекере установлена скидка на скачивание в размере 100 процентов(а).
 Возможность скачивания торрента НЕ зависит от ограничений при низком ратио, низком аплоаде, требуемом ратио или требуемом аплоаде.


Начать новую тему Ответить на тему
Статистика раздачи
Размер: 11.54 ГБ | Добавлен: 01 дек 2014, 17:21 | Скачали: 101
Сидеров: 23  [0 байт/сек]    Личеров: 3  [0 байт/сек]
Пред. тема | След. тема 

Автор
Сообщение

СообщениеДобавлено: 01 дек 2014, 17:21 

Русское название: Команда «А»
Оригинальное название: The A-Team
Год выхода: 2010
Жанр: Боевик
Режиссер: Джо Карнахан
Выпущено: США, 20th Century Fox, Dune Entertainment
Продолжительность: 02:13:34
В ролях: Лиам Нисон, Брэдли Купер, Джессика Бил, Куинтон Джексон, Шарлто Копли, Патрик Уилсон, Джералд Мак, РэйниГенри Черни, Юл Васкез, Брайан Блум
Перевод: Дублированный Blu-ray CEE, закадровый (авторский одноголосый, Гаврилов)



Сюжет фильма

Полнометражная версия сериала 80-х годов «Команда А». Последний вариант истории, написанный Джейсоном Ротуэллом, вращается вокруг группы ветеранов войны в Ираке. Их разыскивают вооруженные силы США по обвинению в преступлении, которого герои не совершали. Скрываясь от преследования, они успевают помогать обиженным и оскорбленным. Новизну старой истории придают вовлеченные в нее нефтяные заправилы и лазерные технологии.


Файл
Качество: BDRip 1080p (исходник Blu-ray Disc)
Видео: 1920x816, ~10400 Кбит/сек, 23,976 кадр/сек, AVC, x264, High@L4.1, 0.278 Бит/[Пиксели*Кадры], 2pass
Аудио 1: AC-3, 640 Кбит/сек, 6 канала(ов), 48,0 КГц - Полное дублирование Blu-ray CEE
Аудио 2: AC-3, 640 Кбит/сек, 6 канала(ов), 48,0 КГц - закадровый (авторский одноголосый, Гаврилов)
Аудио 3: AC-3, 640 Кбит/сек, 6 канала(ов), 48,0 КГц - Оригинал / Английский
Чаптеры: есть
Субтитры: Русские (Full), Русские (Forced), English (Full). English (Forced)


Автор Рипа:


Релиз от







Format : Matroska
Format version : Version 2
File size : 11.5 GiB
Duration : 2h 13mn
Overall bit rate : 12.4 Mbps
Movie name : Команда «А».(2010).BDRip.1080p.[denis100]
Encoded date : UTC 2013-10-13 12:18:37
Writing application : mkvmerge v5.8.0 ('No Sleep / Pillow') built on Sep 2 2012 15:37:04
Writing library : libebml v1.2.3 + libmatroska v1.3.0

Video
ID : 1
Format : AVC
Format/Info : Advanced Video Codec
Format profile : High@L4.1
Format settings, CABAC : Yes
Format settings, ReFrames : 5 frames
Codec ID : V_MPEG4/ISO/AVC
Duration : 2h 13mn
Bit rate : 10.4 Mbps
Width : 1 920 pixels
Height : 816 pixels
Display aspect ratio : 2.35:1
Frame rate mode : Constant
Frame rate : 23.976 fps
Color space : YUV
Chroma subsampling : 4:2:0
Bit depth : 8 bits
Scan type : Progressive
Bits/(Pixel*Frame) : 0.278
Stream size : 9.52 GiB (82%)
Title : Команда «А».(2010).BDRip.1080p.[denis100]
Writing library : x264 core 138 r2358 9e941d1
Encoding settings : cabac=1 / ref=5 / deblock=1:-3:-3 / analyse=0x3:0x133 / me=umh / subme=11 / psy=1 / psy_rd=1.00:0.10 / mixed_ref=1 / me_range=32 / chroma_me=1 / trellis=2 / 8x8dct=1 / cqm=0 / deadzone=21,11 / fast_pskip=0 / chroma_qp_offset=-3 / threads=6 / lookahead_threads=1 / sliced_threads=0 / nr=0 / decimate=0 / interlaced=0 / bluray_compat=0 / constrained_intra=0 / bframes=8 / b_pyramid=2 / b_adapt=2 / b_bias=0 / direct=3 / weightb=1 / open_gop=0 / weightp=2 / keyint=240 / keyint_min=23 / scenecut=40 / intra_refresh=0 / rc=2pass / mbtree=0 / bitrate=10449 / ratetol=1.0 / qcomp=0.60 / qpmin=0 / qpmax=69 / qpstep=4 / cplxblur=20.0 / qblur=0.5 / ip_ratio=1.40 / pb_ratio=1.30 / aq=1:0.80
Language : English
Default : Yes
Forced : No

Audio #1
ID : 2
Format : AC-3
Format/Info : Audio Coding 3
Mode extension : CM (complete main)
Format settings, Endianness : Big
Codec ID : A_AC3
Duration : 2h 13mn
Bit rate mode : Constant
Bit rate : 640 Kbps
Channel count : 6 channels
Channel positions : Front: L C R, Side: L R, LFE
Sampling rate : 48.0 KHz
Bit depth : 16 bits
Compression mode : Lossy
Stream size : 611 MiB (5%)
Title : дублированный (Blu-ray CEE)
Language : Russian
Default : No
Forced : No

Audio #2
ID : 3
Format : AC-3
Format/Info : Audio Coding 3
Mode extension : CM (complete main)
Format settings, Endianness : Big
Codec ID : A_AC3
Duration : 2h 13mn
Bit rate mode : Constant
Bit rate : 640 Kbps
Channel count : 6 channels
Channel positions : Front: L C R, Side: L R, LFE
Sampling rate : 48.0 KHz
Bit depth : 16 bits
Compression mode : Lossy
Stream size : 611 MiB (5%)
Title : закадровый (авторский одноголосый, Гаврилов)
Language : Russian
Default : No
Forced : No

Audio #3
ID : 4
Format : AC-3
Format/Info : Audio Coding 3
Mode extension : CM (complete main)
Format settings, Endianness : Big
Codec ID : A_AC3
Duration : 2h 13mn
Bit rate mode : Constant
Bit rate : 640 Kbps
Channel count : 6 channels
Channel positions : Front: L C R, Side: L R, LFE
Sampling rate : 48.0 KHz
Bit depth : 16 bits
Compression mode : Lossy
Stream size : 611 MiB (5%)
Title : Английский
Language : English
Default : No
Forced : No

Text #1
ID : 5
Format : UTF-8
Codec ID : S_TEXT/UTF8
Codec ID/Info : UTF-8 Plain Text
Title : Русские форсированые
Language : Russian
Default : No
Forced : No

Text #2
ID : 6
Format : UTF-8
Codec ID : S_TEXT/UTF8
Codec ID/Info : UTF-8 Plain Text
Title : Русские полные
Language : Russian
Default : No
Forced : No

Text #3
ID : 7
Format : UTF-8
Codec ID : S_TEXT/UTF8
Codec ID/Info : UTF-8 Plain Text
Title : Английские - Forced
Language : English
Default : No
Forced : No

Text #4
ID : 8
Format : UTF-8
Codec ID : S_TEXT/UTF8
Codec ID/Info : UTF-8 Plain Text
Title : Английские
Language : English
Default : No
Forced : No

Menu
00:00:00.000 : :Chapter 01
00:05:17.400 : :Chapter 02
00:13:31.268 : :Chapter 03
00:21:10.769 : :Chapter 04
00:26:32.340 : :Chapter 05
00:37:42.802 : :Chapter 06
00:45:23.554 : :Chapter 07
00:49:30.258 : :Chapter 08
00:56:53.868 : :Chapter 09
01:02:40.548 : :Chapter 10
01:09:43.053 : :Chapter 11
01:15:19.639 : :Chapter 12
01:23:06.356 : :Chapter 13
01:28:54.578 : :Chapter 14
01:35:56.834 : :Chapter 15
01:38:35.951 : :Chapter 16
01:43:12.519 : :Chapter 17
01:49:42.825 : :Chapter 18
01:57:19.573 : :Chapter 19
02:07:00.654 : :Chapter 20
02:13:33.588 : :Chapter 21



x264 [info]: frame I:1423 Avg QP:16.21 size:156688
x264 [info]: frame P:56331 Avg QP:18.78 size: 81709
x264 [info]: frame B:134385 Avg QP:21.10 size: 41953
загрузка...
Правила, инструкции, FAQ!!!
Торрент  Добавлен [01 дек 2014, 17:21] Скачать торрент
Скачать торрент
[ Размер 58.21 КБ / Просмотров 4 ]

Статус
Проверен 
 
Размер  11.54 ГБ
Приватный: Нет (DHT включён)
.torrent скачан  101
Как залить торрент? | Как скачать Torrent? | Как смотреть и слушать онлайн?  


     Отправить личное сообщение
   
Страница 1 из 1
Показать сообщения за:  Поле сортировки  
Начать новую тему Ответить на тему

   Похожие торренты   Автор   Ответы   Просмотры   Последнее сообщение 
В этой теме нет новых непрочитанных сообщений. Скачать торрент Команда «А» / The A-Team (2010) BDRip-AVC | Extended Cut

в форуме Боевики, Размер: 2.91 ГБ, Здоровье: 100%

Anonymous

0
69|21

26
144

21 янв 2014, 10:46

Anonymous Перейти к последнему сообщению

В этой теме нет новых непрочитанных сообщений. Скачать торрент Проверен Команда «А» / The A-Team (2010) BDRip 720p | Extended Cut

в форуме 720p | 1080p, Размер: 5.29 ГБ, Здоровье: 100%

Гость

0
40|5

16
206

01 дек 2014, 17:17

Гость Перейти к последнему сообщению

В этой теме нет новых непрочитанных сообщений. Скачать торрент Проверен Ультрафиолет / Ultraviolet (2006) BDRip 1080p | Расширенная версия

в форуме 720p | 1080p, Размер: 7.88 ГБ, Здоровье: 0%

Anonymous

0
1|112

28
1

11 ноя 2014, 22:10

Anonymous Перейти к последнему сообщению

В этой теме нет новых непрочитанных сообщений. Скачать торрент Код Да Винчи / The Da Vinci Code (2006) BDRip 1080p | Расширенная версия / Extended Cut

в форуме 720p | 1080p, Размер: 7.94 ГБ, Здоровье: 100%

Anonymous

0
45|4

55
89

05 фев 2014, 21:49

Anonymous Перейти к последнему сообщению

В этой теме нет новых непрочитанных сообщений. Скачать торрент Каратэ-пацан / The Karate Kid (2010) BDRip 720p | Лицензия | Расширенная версия

в форуме 720p | 1080p, Размер: 5.86 ГБ, Здоровье: 0%

Anonymous

0
0|0

19
0

06 фев 2014, 14:48

Anonymous Перейти к последнему сообщению



Сейчас этот форум просматривают: нет зарегистрированных пользователей и гости: 2


Вы не можете начинать темы
Вы не можете отвечать на сообщения
Вы не можете редактировать свои сообщения
Вы не можете удалять свои сообщения
Вы не можете добавлять вложения

Перейти:  

!ВНИМАНИЕ!
 Ресурс не предоставляет электронные версии произведений, а занимается лишь коллекционированием и каталогизацией ссылок, присылаемых и публикуемых на форуме нашими читателями. Если вы являетесь правообладателем какого-либо представленного материала и не желаете чтобы ссылка на него находилась в нашем каталоге, свяжитесь с нами и мы незамедлительно удалим её. Файлы для обмена на трекере предоставлены пользователями сайта, и администрация не несёт ответственности за их содержание. Просьба не заливать файлы, защищенные авторскими правами, а также файлы нелегального содержания!