На всех торрентах на трекере установлена скидка на скачивание в размере 100 процентов(а).
 Возможность скачивания торрента НЕ зависит от ограничений при низком ратио, низком аплоаде, требуемом ратио или требуемом аплоаде.


Начать новую тему Ответить на тему
Статистика раздачи
Размер: 12.49 ГБ | Добавлен: 30 ноя 2014, 18:42 | Скачали: 848
Сидеров: 73  [0 байт/сек]    Личеров: 14  [0 байт/сек]
Пред. тема | След. тема 

Автор
Сообщение

СообщениеДобавлено: 30 ноя 2014, 18:42 

Название: Пряности и страсти
Оригинальное название: The Hundred-Foot Journey
Год выхода: 2014
Жанр: драма, комедия
Режиссер: Лассе Халльстрём / Lars Sven «Lasse» Hallström
В ролях: Хелен Миррен, Ом Пури, Маниш Дайал, Шарлотта Ле Бон, Амит Шах, Фарзана Дуа Элахе, Диллон Митра, Ариа Пандья, Мишель Блан, Клеман Сибони

О фильме:
Семья индийских эмигрантов, которых судьба забросила в маленький городок в Провансе, решает открыть кафе с восточной кухней... прямо напротив знаменитого на всю округу ресторана «Плакучая ива», бастиона французских кулинарных традиций, хозяйка которого, Мадам Малори, больше всего на свете гордится тем, что её заведение удостоено звезды в каталоге «Мишлен».
Страна: Индия, ОАЭ, США
Продолжительность: 02:02:30
Перевод: Профессиональный (дублированный)


Кодек: mkv
Качество: BDRip 1080p
Видео: MPEG-4 AVC, 12.1 Mбит/с, 1920x804, 23,976 fps
Звук:
Аудио: Rus, AC3, 640 kb/s (6 ch), 48 kHz
Аудио 2: Eng, DTS, 1510 kb/s (6 ch), 48 kHz
Субтитры: Rus, Eng

Благодарность: amazon



Format : Matroska
Format version : Version 4 / Version 2
File size : 12.5 GiB
Duration : 2h 2mn
Overall bit rate : 14.6 Mbps
Movie name : Tonik
Encoded date : UTC 2014-11-29 17:57:19
Writing application : mkvmerge v7.1.0 ('Good Love') 64bit built on Jul 27 2014 13:06:55
Writing library : libebml v1.3.0 + libmatroska v1.4.1
DURATION : 02:02:38.934000000
NUMBER_OF_FRAMES : 689900
NUMBER_OF_BYTES : 1388078800
_STATISTICS_WRITING_APP : mkvmerge v7.1.0 ('Good Love') 64bit built on Jul 27 2014 13:06:55
_STATISTICS_WRITING_DATE_UTC : 2014-11-29 17:57:19
_STATISTICS_TAGS : BPS DURATION NUMBER_OF_FRAMES NUMBER_OF_BYTES

Video
ID : 1
Format : AVC
Format/Info : Advanced Video Codec
Format profile : High@L4.1
Format settings, CABAC : Yes
Format settings, ReFrames : 5 frames
Codec ID : V_MPEG4/ISO/AVC
Duration : 2h 2mn
Bit rate : 12.1 Mbps
Width : 1 920 pixels
Height : 804 pixels
Display aspect ratio : 2.40:1
Frame rate mode : Constant
Frame rate : 23.976 fps
Color space : YUV
Chroma subsampling : 4:2:0
Bit depth : 8 bits
Scan type : Progressive
Bits/(Pixel*Frame) : 0.328
Stream size : 10.4 GiB (83%)
Writing library : x264 core 142 r2431kMod ac76440
Encoding settings : cabac=1 / ref=5 / deblock=1:-3:-3 / analyse=0x3:0x133 / me=umh / subme=10 / psy=1 / fade_compensate=0.00 / psy_rd=1.05:0.00 / mixed_ref=1 / me_range=24 / chroma_me=1 / trellis=2 / 8x8dct=1 / cqm=0 / deadzone=21,11 / fast_pskip=0 / chroma_qp_offset=-2 / threads=24 / lookahead_threads=4 / sliced_threads=0 / nr=0 / decimate=0 / interlaced=0 / bluray_compat=0 / constrained_intra=0 / fgo=0 / bframes=8 / b_pyramid=2 / b_adapt=2 / b_bias=0 / direct=3 / weightb=1 / open_gop=0 / weightp=2 / keyint=250 / keyint_min=23 / scenecut=40 / intra_refresh=0 / rc=crf / mbtree=0 / crf=19.0000 / qcomp=0.70 / qpmin=0 / qpmax=69 / qpstep=4 / ip_ratio=1.25 / pb_ratio=1.15 / aq=1:0.80
Language : English
Default : Yes
Forced : No
DURATION : 02:02:29.885000000
NUMBER_OF_FRAMES : 176221
NUMBER_OF_BYTES : 11430903396
_STATISTICS_WRITING_APP : mkvmerge v7.1.0 ('Good Love') 64bit built on Jul 27 2014 13:06:55
_STATISTICS_WRITING_DATE_UTC : 2014-11-29 17:57:19
_STATISTICS_TAGS : BPS DURATION NUMBER_OF_FRAMES NUMBER_OF_BYTES

Audio #1
ID : 2
Format : AC-3
Format/Info : Audio Coding 3
Mode extension : CM (complete main)
Format settings, Endianness : Big
Codec ID : A_AC3
Duration : 2h 2mn
Bit rate mode : Constant
Bit rate : 640 Kbps
Channel(s) : 6 channels
Channel positions : Front: L C R, Side: L R, LFE
Sampling rate : 48.0 KHz
Bit depth : 16 bits
Compression mode : Lossy
Stream size : 561 MiB (4%)
Language : Russian
Default : Yes
Forced : No

Audio #2
ID : 3
Format : DTS
Format/Info : Digital Theater Systems
Mode : 16
Format settings, Endianness : Big
Codec ID : A_DTS
Duration : 2h 2mn
Bit rate mode : Constant
Bit rate : 1 509 Kbps
Channel(s) : 6 channels
Channel positions : Front: L C R, Side: L R, LFE
Sampling rate : 48.0 KHz
Bit depth : 24 bits
Compression mode : Lossy
Stream size : 1.29 GiB (10%)
Language : English
Default : No
Forced : No

Text #1
ID : 4
Format : UTF-8
Codec ID : S_TEXT/UTF8
Codec ID/Info : UTF-8 Plain Text
Title : Forced
Language : Russian
Default : Yes
Forced : No

Text #2
ID : 5
Format : UTF-8
Codec ID : S_TEXT/UTF8
Codec ID/Info : UTF-8 Plain Text
Title : Full
Language : Russian
Default : No
Forced : No

Text #3
ID : 6
Format : UTF-8
Codec ID : S_TEXT/UTF8
Codec ID/Info : UTF-8 Plain Text
Language : English
Default : No
Forced : No

Menu
00:00:00.000 : en:00:00:00.000
00:07:36.790 : en:00:07:36.790
00:15:05.154 : en:00:15:05.154
00:20:56.464 : en:00:20:56.464
00:27:01.912 : en:00:27:01.912
00:33:27.464 : en:00:33:27.464
00:41:12.011 : en:00:41:12.011
00:48:12.264 : en:00:48:12.264
00:55:11.934 : en:00:55:11.934
01:02:18.526 : en:01:02:18.526
01:08:58.676 : en:01:08:58.676
01:19:08.953 : en:01:19:08.953
01:28:00.734 : en:01:28:00.734
01:35:53.164 : en:01:35:53.164
01:41:47.393 : en:01:41:47.393
01:47:40.162 : en:01:47:40.162
01:51:18.005 : en:01:51:18.005
01:54:39.247 : en:01:54:39.247




загрузка...
Правила, инструкции, FAQ!!!
Торрент  Добавлен [30 ноя 2014, 18:42] Скачать торрент
Скачать торрент
[ Размер 31.85 КБ / Просмотров 6 ]

Статус
Проверен 
 
Размер  12.49 ГБ
Приватный: Нет (DHT включён)
.torrent скачан  848
Как залить торрент? | Как скачать Torrent? | Как смотреть и слушать онлайн?  


     Отправить личное сообщение
   
Страница 1 из 1
Показать сообщения за:  Поле сортировки  
Начать новую тему Ответить на тему

   Похожие торренты   Автор   Ответы   Просмотры   Последнее сообщение 
В этой теме нет новых непрочитанных сообщений. Скачать торрент Проверен Пряности и страсти / The Hundred-Foot Journey (2014) BDRip 720p | Лицензия

в форуме 720p | 1080p, Размер: 5.21 ГБ, Здоровье: 100%

Гость

0
121|62

47
493

30 ноя 2014, 18:38

Гость Перейти к последнему сообщению

В этой теме нет новых непрочитанных сообщений. Скачать торрент Проверен Пряности и страсти / The Hundred-Foot Journey (2014) BDRip 720p | iTunes

в форуме 720p | 1080p, Размер: 4.99 ГБ, Здоровье: 92%

Anonymous

0
49|53

47
42

25 ноя 2014, 17:43

Anonymous Перейти к последнему сообщению

В этой теме нет новых непрочитанных сообщений. Скачать торрент Проверен Пряности и страсти / The Hundred-Foot Journey (2014) BDRip [576p] iPad

в форуме Фильмы для iPod, iPhone, iPad, Размер: 2.48 ГБ, Здоровье: 100%

Гость

0
30|4

63
0

12 дек 2014, 22:56

Гость Перейти к последнему сообщению

В этой теме нет новых непрочитанных сообщений. Скачать торрент Проверен Пряности и страсти / The Hundred-Foot Journey (2014) HDRip | iTunes

в форуме Индийское кино, Размер: 1.46 ГБ, Здоровье: 100%

Anonymous

0
211|118

187
223

25 ноя 2014, 17:32

Anonymous Перейти к последнему сообщению

В этой теме нет новых непрочитанных сообщений. Скачать торрент Проверен Василиса (2014) BDRip 1080p | Лицензия

в форуме 720p | 1080p, Размер: 10.02 ГБ, Здоровье: 17%

Гость

0
12|70

59
13

31 янв 2015, 13:06

Гость Перейти к последнему сообщению



Сейчас этот форум просматривают: нет зарегистрированных пользователей и гости: 1


Вы не можете начинать темы
Вы не можете отвечать на сообщения
Вы не можете редактировать свои сообщения
Вы не можете удалять свои сообщения
Вы не можете добавлять вложения

Перейти:  

!ВНИМАНИЕ!
 Ресурс не предоставляет электронные версии произведений, а занимается лишь коллекционированием и каталогизацией ссылок, присылаемых и публикуемых на форуме нашими читателями. Если вы являетесь правообладателем какого-либо представленного материала и не желаете чтобы ссылка на него находилась в нашем каталоге, свяжитесь с нами и мы незамедлительно удалим её. Файлы для обмена на трекере предоставлены пользователями сайта, и администрация не несёт ответственности за их содержание. Просьба не заливать файлы, защищенные авторскими правами, а также файлы нелегального содержания!