На всех торрентах на трекере установлена скидка на скачивание в размере 100 процентов(а).
 Возможность скачивания торрента НЕ зависит от ограничений при низком ратио, низком аплоаде, требуемом ратио или требуемом аплоаде.


Начать новую тему Ответить на тему
Статистика раздачи
Размер: 5.13 ГБ | Добавлен: 30 ноя 2014, 10:19 | Скачали: 1886
Сидеров: 181  [0 байт/сек]    Личеров: 35  [0 байт/сек]
Пред. тема | След. тема 

Автор
Сообщение

СообщениеДобавлено: 30 ноя 2014, 10:19 

Название: Как украсть бриллиант
Оригинальное название: Love Punch
Год выхода: 2013
Жанр: Комедия
Режиссер: Джоэл Хопкинс
В ролях: Пирс Броснан, Эмма Томпсон, Тимоти Сполл, Селия Имри, Таппенс Мидлтон, Луиз Бургуан, Мариза Беренсон, Сабина Кроссен, Элинор Матсуура, Патрис Колс

О фильме: Разведенная пара решает вернуть себе пенсионные деньги, которые у них украли.



Выпущено: Франция / Process Media, Love Punch, Radar Films, SND
Продолжительность: 01:34:35
Озвучивание: Дублированное [iTunes]


Формат: MKV (x264)
Качество: BDRip 720p
Видео: 6583 kb/s, 1280x534
Аудио: Russian: AC3, 384 kb/s (6 ch) / English: AC3, 640 kb/s (6 ch)
Субтитры: English





Format : Matroska
Format version : Version 2
File size : 5.13 GiB
Duration : 1h 34mn
Overall bit rate : 7 762 Kbps
Movie name : VHD & KR
Encoded date : UTC 2014-11-27 18:44:44
Writing application : mkvmerge v3.3.0 ('Language') built on Mar 24 2010 14:59:24
Writing library : libebml v0.8.0 + libmatroska v0.9.0
_STATISTICS_WRITING_APP : mkvmerge v7.1.0 ('Good Love') 32bit built on Jul 27 2014 12:59:18
_STATISTICS_WRITING_DATE_UTC : 2014-08-25 05:18:52
_STATISTICS_TAGS : BPS DURATION NUMBER_OF_FRAMES NUMBER_OF_BYTES
DURATION : 01:34:04.873000000
NUMBER_OF_FRAMES : 1510
NUMBER_OF_BYTES : 56412

Video
ID : 1
Format : AVC
Format/Info : Advanced Video Codec
Format profile : High@L4.1
Format settings, CABAC : Yes
Format settings, ReFrames : 12 frames
Codec ID : V_MPEG4/ISO/AVC
Duration : 1h 34mn
Bit rate : 6 583 Kbps
Width : 1 280 pixels
Height : 534 pixels
Display aspect ratio : 2.40:1
Frame rate : 23.976 fps
Color space : YUV
Chroma subsampling : 4:2:0
Bit depth : 8 bits
Scan type : Progressive
Bits/(Pixel*Frame) : 0.402
Stream size : 4.35 GiB (85%)
Writing library : x264 core 142 r2453kMod ea0ca51
Encoding settings : cabac=1 / ref=12 / deblock=1:-3:-3 / analyse=0x3:0x133 / me=umh / subme=10 / psy=1 / fade_compensate=0.00 / psy_rd=1.00:0.00 / mixed_ref=1 / me_range=24 / chroma_me=1 / trellis=2 / 8x8dct=1 / cqm=0 / deadzone=21,11 / fast_pskip=0 / chroma_qp_offset=-2 / threads=24 / lookahead_threads=4 / sliced_threads=0 / nr=0 / decimate=0 / interlaced=0 / bluray_compat=0 / constrained_intra=0 / fgo=0 / bframes=10 / b_pyramid=2 / b_adapt=2 / b_bias=0 / direct=3 / weightb=1 / open_gop=0 / weightp=2 / keyint=250 / keyint_min=23 / scenecut=40 / intra_refresh=0 / rc=crf / mbtree=0 / crf=15.7000 / qcomp=0.75 / qpmin=0 / qpmax=69 / qpstep=4 / ip_ratio=1.20 / pb_ratio=1.20 / aq=1:0.90
Language : English
Default : No
Forced : No
_STATISTICS_WRITING_APP : mkvmerge v7.1.0 ('Good Love') 32bit built on Jul 27 2014 12:59:18
_STATISTICS_WRITING_DATE_UTC : 2014-08-25 05:18:52
_STATISTICS_TAGS : BPS DURATION NUMBER_OF_FRAMES NUMBER_OF_BYTES
DURATION : 01:34:32.459000000
NUMBER_OF_FRAMES : 136003
NUMBER_OF_BYTES : 4776614208

Audio #1
ID : 2
Format : AC-3
Format/Info : Audio Coding 3
Mode extension : CM (complete main)
Format settings, Endianness : Big
Codec ID : A_AC3
Duration : 1h 34mn
Bit rate mode : Constant
Bit rate : 384 Kbps
Channel(s) : 6 channels
Channel positions : Front: L C R, Side: L R, LFE
Sampling rate : 48.0 KHz
Bit depth : 16 bits
Compression mode : Lossy
Stream size : 260 MiB (5%)
Title : AC3 5.1 @ 384 kbps - Dub, iTunes Russia
Language : Russian
Default : Yes
Forced : No

Audio #2
ID : 3
Format : AC-3
Format/Info : Audio Coding 3
Mode extension : CM (complete main)
Format settings, Endianness : Big
Codec ID : A_AC3
Duration : 1h 34mn
Bit rate mode : Constant
Bit rate : 640 Kbps
Channel(s) : 6 channels
Channel positions : Front: L C R, Side: L R, LFE
Sampling rate : 48.0 KHz
Bit depth : 16 bits
Compression mode : Lossy
Stream size : 433 MiB (8%)
Title : AC3 5.1 @ 640 kbps
Language : English
Default : No
Forced : No

Text #1
ID : 4
Format : UTF-8
Codec ID : S_TEXT/UTF8
Codec ID/Info : UTF-8 Plain Text
Language : English
Default : No
Forced : No

Text #2
ID : 5
Format : UTF-8
Codec ID : S_TEXT/UTF8
Codec ID/Info : UTF-8 Plain Text
Language : English
Default : No
Forced : No

Menu
00:00:00.000 : en:00:00:00.000
00:00:16.767 : en:00:00:16.767
00:00:17.017 : en:00:00:17.017
00:06:10.787 : en:00:06:10.787
00:11:54.464 : en:00:11:54.464
00:17:31.425 : en:00:17:31.425
00:22:34.103 : en:00:22:34.103
00:28:18.322 : en:00:28:18.322
00:33:56.284 : en:00:33:56.284
00:41:40.915 : en:00:41:40.915
00:46:44.927 : en:00:46:44.927
00:52:38.739 : en:00:52:38.739
00:57:11.803 : en:00:57:11.803
01:04:42.462 : en:01:04:42.462
01:10:25.263 : en:01:10:25.263
01:17:27.226 : en:01:17:27.226
01:23:19.036 : en:01:23:19.036
01:28:23.381 : en:01:28:23.381


Релиз:
загрузка...
Правила, инструкции, FAQ!!!
Торрент  Добавлен [30 ноя 2014, 10:19] Скачать торрент
Скачать торрент
[ Размер 26.16 КБ / Просмотров 5 ]

Статус
Проверен 
 
Размер  5.13 ГБ
Приватный: Нет (DHT включён)
.torrent скачан  1886
Как залить торрент? | Как скачать Torrent? | Как смотреть и слушать онлайн?  


     Отправить личное сообщение
   
Страница 1 из 1
Показать сообщения за:  Поле сортировки  
Начать новую тему Ответить на тему

   Похожие торренты   Автор   Ответы   Просмотры   Последнее сообщение 
В этой теме нет новых непрочитанных сообщений. Скачать торрент Проверен Как украсть бриллиант / Love Punch (2013) BDRip 1080p | iTunes

в форуме 720p | 1080p, Размер: 8.17 ГБ, Здоровье: 69%

Гость

0
46|66

16
96

30 ноя 2014, 10:16

Гость Перейти к последнему сообщению

В этой теме нет новых непрочитанных сообщений. Скачать торрент Проверен Как украсть бриллиант / The Love Punch (2013) HDRip | L1

в форуме Комедии, Размер: 1.46 ГБ, Здоровье: 100%

Anonymous

0
723|42

66
5614

23 авг 2014, 21:37

Anonymous Перейти к последнему сообщению

В этой теме нет новых непрочитанных сообщений. Скачать торрент Проверен Как украсть бриллиант / Love Punch (2013) HDRip [576p] iPad [Line]

в форуме Фильмы для iPod, iPhone, iPad, Размер: 1.65 ГБ, Здоровье: 100%

Гость

0
17|1

29
0

12 дек 2014, 22:56

Гость Перейти к последнему сообщению

В этой теме нет новых непрочитанных сообщений. Скачать торрент Проверен Анатомия любви / Endless Love (2014) BDRip 720p | iTunes

в форуме 720p | 1080p, Размер: 6.43 ГБ, Здоровье: 100%

Anonymous

0
34|0

22
362

21 май 2014, 22:39

Anonymous Перейти к последнему сообщению

В этой теме нет новых непрочитанных сообщений. Скачать торрент Проверен Последний бриллиант / Le dernier diamant (2014) BDRip 720p

в форуме 720p | 1080p, Размер: 3.23 ГБ, Здоровье: 100%

Гость

0
162|7

39
1758

23 янв 2015, 16:27

Гость Перейти к последнему сообщению



Сейчас этот форум просматривают: нет зарегистрированных пользователей и гости: 4


Вы не можете начинать темы
Вы не можете отвечать на сообщения
Вы не можете редактировать свои сообщения
Вы не можете удалять свои сообщения
Вы не можете добавлять вложения

Перейти:  

!ВНИМАНИЕ!
 Ресурс не предоставляет электронные версии произведений, а занимается лишь коллекционированием и каталогизацией ссылок, присылаемых и публикуемых на форуме нашими читателями. Если вы являетесь правообладателем какого-либо представленного материала и не желаете чтобы ссылка на него находилась в нашем каталоге, свяжитесь с нами и мы незамедлительно удалим её. Файлы для обмена на трекере предоставлены пользователями сайта, и администрация не несёт ответственности за их содержание. Просьба не заливать файлы, защищенные авторскими правами, а также файлы нелегального содержания!