На всех торрентах на трекере установлена скидка на скачивание в размере 100 процентов(а).
 Возможность скачивания торрента НЕ зависит от ограничений при низком ратио, низком аплоаде, требуемом ратио или требуемом аплоаде.


Начать новую тему Ответить на тему
Статистика раздачи
Размер: 8.17 ГБ | Добавлен: 30 ноя 2014, 10:16 | Скачали: 96
Сидеров: 46  [0 байт/сек]    Личеров: 66  [0 байт/сек]
Пред. тема | След. тема 

Автор
Сообщение

СообщениеДобавлено: 30 ноя 2014, 10:16 

Название: Как украсть бриллиант
Оригинальное название: Love Punch
Год выхода: 2013
Жанр: Комедия
Режиссер: Джоэл Хопкинс
В ролях: Пирс Броснан, Эмма Томпсон, Тимоти Сполл, Селия Имри, Таппенс Мидлтон, Луиз Бургуан, Мариза Беренсон, Сабина Кроссен, Элинор Матсуура, Патрис Колс

О фильме: Бывший муж и жена Ричард и Кейт, у которых огонь прежних отношений еще не угас, обнаруживают, что пенсия пропала, т.к. инвестиционную компанию Ричарда обманывают, и пенсионный фонд уже не способен обеспечить им старость. Узнав, что недобросовестный французский финансист только что купил алмаз за $10 миллионов для своей невесты, разведенный дуэт неохотно соглашается отложить их разногласия и замышляет дельце, чтобы прийти без приглашения на свадьбу и украсть бриллиант.



Выпущено: Франция / Process Media, Love Punch, Radar Films, SND
Продолжительность: 01:34:32
Озвучивание: Дублированное [iTunes]


Формат: MKV (x264)
Качество: BDRip 1080p
Видео: MPEG-4 AVC, 10500 Кбит/с, 1920x800
Аудио#1: Russian: 48 kHz, AC3, 3/2 (L,C,R,l,r) + LFE ch, ~384 kbps - Дублированный (iTunes)
Аудио#2: English: 48 kHz, DTS, 3/2 (L,C,R,l,r) + LFE ch, ~1509 kbps - Оригинал
Формат : Matroska
Версия формата : Version 4 / Version 2
Размер файла : 8,17 Гбайт
Продолжительность : 1 ч. 34 м.
Общий поток : 12,4 Мбит/сек
Название фильма : The.Love.Punch.2013.BluRay.1080p.DTS.x264-CHD
Дата кодирования : UTC 2014-11-29 23:58:41
Программа кодирования : mkvmerge v7.3.0 ('Nouages') 32bit built on Oct 22 2014 18:44:01
Библиотека кодирования : libebml v1.3.0 + libmatroska v1.4.1
_STATISTICS_WRITING_APP : mkvmerge v7.3.0 ('Nouages') 32bit built on Oct 22 2014 18:44:01
_STATISTICS_WRITING_DATE_UTC : 2014-11-29 23:58:41
_STATISTICS_TAGS : BPS DURATION NUMBER_OF_FRAMES NUMBER_OF_BYTES
DURATION : 01:34:16.160000000
NUMBER_OF_FRAMES : 176755
NUMBER_OF_BYTES : 271495680

Видео
Идентификатор : 1
Формат : AVC
Формат/Информация : Advanced Video Codec
Профиль формата : High@L4.1
Параметр CABAC формата : Да
Параметр ReFrames формата : 5 кадров
Идентификатор кодека : V_MPEG4/ISO/AVC
Продолжительность : 1 ч. 34 м.
Битрейт : 10,5 Мбит/сек
Ширина : 1920 пикселей
Высота : 800 пикселей
Соотношение сторон : 2,40:1
Режим частоты кадров : Постоянный
Частота кадров : 23,976 кадра/сек
Цветовое пространство : YUV
Субдискретизация насыщенности : 4:2:0
Битовая глубина : 8 бит
Тип развёртки : Прогрессивная
Бит/(Пиксели*Кадры) : 0.285
Размер потока : 6,75 Гбайт (83%)
Заголовок : CHD
Библиотека кодирования : x264 core 142 r2431 ac76440
Настройки программы : cabac=1 / ref=5 / deblock=1:-3:-3 / analyse=0x3:0x113 / me=umh / subme=10 / psy=1 / psy_rd=1.00:0.05 / mixed_ref=1 / me_range=32 / chroma_me=1 / trellis=2 / 8x8dct=1 / cqm=0 / deadzone=21,11 / fast_pskip=0 / chroma_qp_offset=-2 / threads=18 / lookahead_threads=1 / sliced_threads=0 / nr=0 / decimate=1 / interlaced=0 / bluray_compat=0 / constrained_intra=0 / bframes=5 / b_pyramid=2 / b_adapt=2 / b_bias=0 / direct=3 / weightb=1 / open_gop=0 / weightp=2 / keyint=250 / keyint_min=23 / scenecut=40 / intra_refresh=0 / rc=2pass / mbtree=0 / bitrate=10489 / ratetol=1.0 / qcomp=0.70 / qpmin=0 / qpmax=69 / qpstep=4 / cplxblur=20.0 / qblur=0.5 / ip_ratio=1.40 / pb_ratio=1.30 / aq=2:0.90
Язык : English
Default : Да
Forced : Нет
_STATISTICS_WRITING_APP : mkvmerge v7.3.0 ('Nouages') 32bit built on Oct 22 2014 18:44:01
_STATISTICS_WRITING_DATE_UTC : 2014-11-29 23:58:41
_STATISTICS_TAGS : BPS DURATION NUMBER_OF_FRAMES NUMBER_OF_BYTES
DURATION : 01:34:32.496000000
NUMBER_OF_FRAMES : 136004
NUMBER_OF_BYTES : 7426023418

Аудио #1
Идентификатор : 2
Формат : AC-3
Формат/Информация : Audio Coding 3
Расширение режима : CM (complete main)
Параметр Endianness формата : Big
Идентификатор кодека : A_AC3
Продолжительность : 1 ч. 34 м.
Вид битрейта : Постоянный
Битрейт : 384 Кбит/сек
Каналы : 6 каналов
Расположение каналов : Front: L C R, Side: L R, LFE
Частота : 48,0 КГц
Битовая глубина : 16 бит
Метод сжатия : С потерями
Размер потока : 260 Мбайт (3%)
Заголовок : Дублированный (iTunes)
Язык : Russian
Default : Да
Forced : Нет

Аудио #2
Идентификатор : 3
Формат : DTS
Формат/Информация : Digital Theater Systems
Режим : 16
Параметр Endianness формата : Big
Идентификатор кодека : A_DTS
Продолжительность : 1 ч. 34 м.
Вид битрейта : Постоянный
Битрейт : 1509 Кбит/сек
Каналы : 6 каналов
Расположение каналов : Front: L C R, Side: L R, LFE
Частота : 48,0 КГц
Битовая глубина : 24 бит
Метод сжатия : С потерями
Размер потока : 1020 Мбайт (12%)
Заголовок : English DTS 5.1 1509Kbps
Язык : English
Default : Нет
Forced : Нет

Меню
00:00:00.000 : en:00:00:00.000
00:00:16.767 : en:00:00:16.767
00:00:17.017 : en:00:00:17.017
00:06:10.787 : en:00:06:10.787
00:11:54.464 : en:00:11:54.464
00:17:31.425 : en:00:17:31.425
00:22:34.103 : en:00:22:34.103
00:28:18.322 : en:00:28:18.322
00:33:56.284 : en:00:33:56.284
00:41:40.915 : en:00:41:40.915
00:46:44.927 : en:00:46:44.927
00:52:38.739 : en:00:52:38.739
00:57:11.803 : en:00:57:11.803
01:04:42.462 : en:01:04:42.462
01:10:25.263 : en:01:10:25.263
01:17:27.226 : en:01:17:27.226
01:23:19.036 : en:01:23:19.036
01:28:23.381 : en:01:28:23.381

загрузка...
Правила, инструкции, FAQ!!!
Торрент  Добавлен [30 ноя 2014, 10:16] Скачать торрент
Скачать торрент
[ Размер 21.06 КБ / Просмотров 8 ]

Статус
Проверен 
 
Размер  8.17 ГБ
Приватный: Нет (DHT включён)
.torrent скачан  96
Как залить торрент? | Как скачать Torrent? | Как смотреть и слушать онлайн?  


     Отправить личное сообщение
   
Страница 1 из 1
Показать сообщения за:  Поле сортировки  
Начать новую тему Ответить на тему

   Похожие торренты   Автор   Ответы   Просмотры   Последнее сообщение 
В этой теме нет новых непрочитанных сообщений. Скачать торрент Проверен Как украсть бриллиант / Love Punch (2013) BDRip 720p | iTunes

в форуме 720p | 1080p, Размер: 5.13 ГБ, Здоровье: 100%

Anonymous

0
181|35

20
1886

30 ноя 2014, 10:19

Anonymous Перейти к последнему сообщению

В этой теме нет новых непрочитанных сообщений. Скачать торрент Проверен Как украсть бриллиант / The Love Punch (2013) HDRip | L1

в форуме Комедии, Размер: 1.46 ГБ, Здоровье: 100%

Anonymous

0
723|42

66
5614

23 авг 2014, 21:37

Anonymous Перейти к последнему сообщению

В этой теме нет новых непрочитанных сообщений. Скачать торрент Проверен Как украсть бриллиант / Love Punch (2013) HDRip [576p] iPad [Line]

в форуме Фильмы для iPod, iPhone, iPad, Размер: 1.65 ГБ, Здоровье: 100%

Гость

0
17|1

29
0

12 дек 2014, 22:56

Гость Перейти к последнему сообщению

В этой теме нет новых непрочитанных сообщений. Скачать торрент Проверен Добро пожаловать в капкан / Welcome to the Punch (2013) BDRip 1080p | D, A

в форуме 720p | 1080p, Размер: 12.47 ГБ, Здоровье: 100%

Anonymous

0
16|1

155
190

29 сен 2014, 17:40

Anonymous Перейти к последнему сообщению

В этой теме нет новых непрочитанных сообщений. Скачать торрент Проверен Анатомия любви / Endless Love (2014) BDRip 1080p | iTunes

в форуме 720p | 1080p, Размер: 7.93 ГБ, Здоровье: 0%

Anonymous

0
0|0

27
0

22 май 2014, 06:17

Anonymous Перейти к последнему сообщению



Сейчас этот форум просматривают: нет зарегистрированных пользователей и гости: 2


Вы не можете начинать темы
Вы не можете отвечать на сообщения
Вы не можете редактировать свои сообщения
Вы не можете удалять свои сообщения
Вы не можете добавлять вложения

Перейти:  

!ВНИМАНИЕ!
 Ресурс не предоставляет электронные версии произведений, а занимается лишь коллекционированием и каталогизацией ссылок, присылаемых и публикуемых на форуме нашими читателями. Если вы являетесь правообладателем какого-либо представленного материала и не желаете чтобы ссылка на него находилась в нашем каталоге, свяжитесь с нами и мы незамедлительно удалим её. Файлы для обмена на трекере предоставлены пользователями сайта, и администрация не несёт ответственности за их содержание. Просьба не заливать файлы, защищенные авторскими правами, а также файлы нелегального содержания!