На всех торрентах на трекере установлена скидка на скачивание в размере 100 процентов(а).
 Возможность скачивания торрента НЕ зависит от ограничений при низком ратио, низком аплоаде, требуемом ратио или требуемом аплоаде.


Начать новую тему Ответить на тему
Статистика раздачи
Размер: 6.53 ГБ | Добавлен: 30 ноя 2014, 02:56 | Скачали: 56
Сидеров: 40  [0 байт/сек]    Личеров: 52  [0 байт/сек]
Пред. тема | След. тема 

Автор
Сообщение

СообщениеДобавлено: 30 ноя 2014, 02:56 

Название: Свой ребенок
Оригинальное название: Obvious Child
Год выхода: 2014
Жанр: комедия, мелодрама
Режиссер: Джиллиан Робеспьер
В ролях: Дженни Слейт,Джейк Лэси,Габи Хоффманн,Гейб Лидман,Дэвид Кросс,Ричард Кайнд,Полли Дрэйпер,Пол Бриганти,Синди Чунг,Стивен Сингер
О фильме: Стенд-ап комик Донна одновременно лишается бойфренда, работы и случайно беременеет от неизвестного ей мужчины…

Выпущено: США
Продолжительность: 01:24:22
Перевод: Любительский (одноголосый, закадровый) - PashaUp
Файл
Качество: BDRip 1080p
Формат: MKV
Видео: MPEG4/AVC, 1920х816 (2.35:1), 10000 Кбит/сек, 23.976 кадра/сек
Аудио 1: AC3, 6 каналов, 448 Кбит/сек | Русский
Аудио 2: AC3, 6 каналов, 640 Кбит/сек | Английский
Субтитры: Русские, Английские (Full, SDH)
Навигация по главам: Есть
Общее
Уникальный идентификатор : 188640458605530464374522659220975454883 (0x8DEAD4AEFD66C014A9181EA2FCEB0AA3)
Полное имя : Obvious Child. (2014) BDRip 1080p.mkv
Формат : Matroska
Версия формата : Version 2
Размер файла : 6,53 Гбайт
Продолжительность : 1 ч. 24 м.
Общий поток : 11,1 Мбит/сек
Название фильма : Obvious Child. 2014
Дата кодирования : UTC 2014-11-29 20:00:24
Программа кодирования : mkvmerge v5.8.0 ('No Sleep / Pillow') built on Sep 2 2012 15:37:04
Библиотека кодирования : libebml v1.2.3 + libmatroska v1.3.0
Видео
Идентификатор : 1
Формат : AVC
Формат/Информация : Advanced Video Codec
Профиль формата : High@L4.1
Параметр CABAC формата : Да
Параметр ReFrames формата : 5 кадров
Идентификатор кодека : V_MPEG4/ISO/AVC
Продолжительность : 1 ч. 24 м.
Битрейт : 10000 Кбит/сек
Ширина : 1920 пикселей
Высота : 816 пикселей
Соотношение сторон : 2,35:1
Режим частоты кадров : Постоянный
Частота кадров : 23,976 кадра/сек
Цветовое пространство : YUV
Субдискретизация насыщенности : 4:2:0
Битовая глубина : 8 бит
Тип развёртки : Прогрессивная
Бит/(Пиксели*Кадры) : 0.266
Размер потока : 5,76 Гбайт (88%)
Заголовок : VietHD
Библиотека кодирования : x264 core 142 r2479kMod dd79a61
Настройки программы : cabac=1 / ref=5 / deblock=1:-3:-3 / analyse=0x3:0x133 / me=umh / subme=10 / psy=1 / fade_compensate=0.00 / psy_rd=1.08:0.00 / mixed_ref=1 / me_range=24 / chroma_me=1 / trellis=2 / 8x8dct=1 / cqm=0 / deadzone=21,11 / fast_pskip=1 / chroma_qp_offset=-2 / threads=6 / lookahead_threads=1 / sliced_threads=0 / nr=0 / decimate=1 / interlaced=0 / bluray_compat=0 / constrained_intra=0 / fgo=0 / bframes=11 / b_pyramid=2 / b_adapt=2 / b_bias=0 / direct=3 / weightb=1 / open_gop=0 / weightp=2 / keyint=250 / keyint_min=23 / scenecut=40 / intra_refresh=0 / rc=2pass / mbtree=0 / bitrate=10000 / ratetol=1.0 / qcomp=0.65 / qpmin=0 / qpmax=69 / qpstep=4 / cplxblur=20.0 / qblur=0.5 / ip_ratio=1.30 / pb_ratio=1.20 / aq=1:0.68
Язык : English
Default : Да
Forced : Нет
Коэффициенты матрицы : BT.709
Аудио #1
Идентификатор : 2
Формат : AC-3
Формат/Информация : Audio Coding 3
Расширение режима : CM (complete main)
Параметр Endianness формата : Big
Идентификатор кодека : A_AC3
Продолжительность : 1 ч. 24 м.
Вид битрейта : Постоянный
Битрейт : 448 Кбит/сек
Каналы : 6 каналов
Расположение каналов : Front: L C R, Side: L R, LFE
Частота : 48,0 КГц
Битовая глубина : 16 бит
Метод сжатия : С потерями
Размер потока : 270 Мбайт (4%)
Заголовок : L1 | PashaUp
Язык : Russian
Default : Да
Forced : Нет
Аудио #2
Идентификатор : 3
Формат : AC-3
Формат/Информация : Audio Coding 3
Расширение режима : CM (complete main)
Параметр Endianness формата : Big
Идентификатор кодека : A_AC3
Продолжительность : 1 ч. 24 м.
Вид битрейта : Постоянный
Битрейт : 640 Кбит/сек
Каналы : 6 каналов
Расположение каналов : Front: L C R, Side: L R, LFE
Частота : 48,0 КГц
Битовая глубина : 16 бит
Метод сжатия : С потерями
Размер потока : 386 Мбайт (6%)
Заголовок : Original
Язык : English
Default : Нет
Forced : Нет
Текст #1
Идентификатор : 4
Формат : UTF-8
Идентификатор кодека : S_TEXT/UTF8
Идентификатор кодека/Информация : UTF-8 Plain Text
Заголовок : Full
Язык : Russian
Default : Нет
Forced : Нет
Текст #2
Идентификатор : 5
Формат : UTF-8
Идентификатор кодека : S_TEXT/UTF8
Идентификатор кодека/Информация : UTF-8 Plain Text
Заголовок : Full
Язык : English
Default : Нет
Forced : Нет
Текст #3
Идентификатор : 6
Формат : UTF-8
Идентификатор кодека : S_TEXT/UTF8
Идентификатор кодека/Информация : UTF-8 Plain Text
Заголовок : SDH
Язык : English
Default : Нет
Forced : Нет
Меню
00:00:00.000 : en:00:00:00.000
00:05:25.200 : en:00:05:25.200
00:13:22.593 : en:00:13:22.593
00:20:36.152 : en:00:20:36.152
00:26:29.922 : en:00:26:29.922
00:31:38.313 : en:00:31:38.313
00:38:55.291 : en:00:38:55.291
00:44:17.905 : en:00:44:17.905
00:47:16.625 : en:00:47:16.625
00:51:14.571 : en:00:51:14.571
00:54:18.338 : en:00:54:18.338
00:57:19.144 : en:00:57:19.144
01:02:47.097 : en:01:02:47.097
01:05:10.907 : en:01:05:10.907
01:10:31.686 : en:01:10:31.686
01:16:41.639 : en:01:16:41.639


Релиз от:
загрузка...
Правила, инструкции, FAQ!!!
Торрент  Добавлен [30 ноя 2014, 02:56] Скачать торрент
Скачать торрент
[ Размер 16.99 КБ / Просмотров 6 ]

Статус
Проверен 
 
Размер  6.53 ГБ
Приватный: Нет (DHT включён)
.torrent скачан  56
Как залить торрент? | Как скачать Torrent? | Как смотреть и слушать онлайн?  


     Отправить личное сообщение
   
Страница 1 из 1
Показать сообщения за:  Поле сортировки  
Начать новую тему Ответить на тему

   Похожие торренты   Автор   Ответы   Просмотры   Последнее сообщение 
В этой теме нет новых непрочитанных сообщений. Скачать торрент Проверен Свой ребенок / Obvious Child (2014) HDRip | L1

в форуме Комедии, Размер: 1.32 ГБ, Здоровье: 100%

Гость

0
20|1

303
3

30 ноя 2014, 02:58

Гость Перейти к последнему сообщению

В этой теме нет новых непрочитанных сообщений. Скачать торрент Золотой ребенок / The Golden Child (1986) HDRip | P

в форуме Боевики, Размер: 1.45 ГБ, Здоровье: 0%

Anonymous

0
0|0

33
0

30 дек 2013, 22:26

Anonymous Перейти к последнему сообщению

В этой теме нет новых непрочитанных сообщений. Скачать торрент Проверен G. Star / Стар Г. - Astrology & Your Child / Астрология и ваш ребенок: Руководство для родителей [2002, PDF, RUS]

в форуме Астрология, Размер: 36.58 МБ, Здоровье: 100%

Anonymous

0
7|2

3
0

11 сен 2016, 23:52

Anonymous Перейти к последнему сообщению

В этой теме нет новых непрочитанных сообщений. Скачать торрент У вас будет ребенок [01-08 из 08] (2014) SATRip

в форуме Отечественные сериалы, Размер: 4.68 ГБ, Здоровье: 100%

Anonymous

0
103|12

54
708

21 мар 2014, 08:44

Anonymous Перейти к последнему сообщению

В этой теме нет новых непрочитанных сообщений. Скачать торрент Проверен Дитя с Марса / Martian Child (2007) HDTVRip 1080p | P

в форуме 720p | 1080p, Размер: 6.71 ГБ, Здоровье: 100%

Anonymous

0
190|123

217
87

05 сен 2015, 19:22

Anonymous Перейти к последнему сообщению



Сейчас этот форум просматривают: нет зарегистрированных пользователей и гости: 1


Вы не можете начинать темы
Вы не можете отвечать на сообщения
Вы не можете редактировать свои сообщения
Вы не можете удалять свои сообщения
Вы не можете добавлять вложения

Перейти:  

!ВНИМАНИЕ!
 Ресурс не предоставляет электронные версии произведений, а занимается лишь коллекционированием и каталогизацией ссылок, присылаемых и публикуемых на форуме нашими читателями. Если вы являетесь правообладателем какого-либо представленного материала и не желаете чтобы ссылка на него находилась в нашем каталоге, свяжитесь с нами и мы незамедлительно удалим её. Файлы для обмена на трекере предоставлены пользователями сайта, и администрация не несёт ответственности за их содержание. Просьба не заливать файлы, защищенные авторскими правами, а также файлы нелегального содержания!