На всех торрентах на трекере установлена скидка на скачивание в размере 100 процентов(а).
 Возможность скачивания торрента НЕ зависит от ограничений при низком ратио, низком аплоаде, требуемом ратио или требуемом аплоаде.


Начать новую тему Ответить на тему
Статистика раздачи
Размер: 7.62 ГБ | Добавлен: 30 ноя 2014, 02:50 | Скачали: 16
Сидеров: 24  [0 байт/сек]    Личеров: 57  [0 байт/сек]
Пред. тема | След. тема 

Автор
Сообщение

СообщениеДобавлено: 30 ноя 2014, 02:50 

Год выпуска: 1990
Производство: USA / Circle Films, Twentieth Century Fox Film Corporation
Жанр: триллер, драма, криминал

Режиссер: Джоэл Коэн, Итан Коэн
Актеры: Гэбриел Бирн, Джон Туртурро, Альберт Финни, Марша Гей Харден, Джон Полито, Дж.Э. Фримен, Майк Старр, Аль Манчини, Ричард Вуд, Томас Тонер

Описание фильма: Америка тридцатых годов. Время сухого закона. Преступные кланы в любой момент готовы развязать кровавую войну за контроль над поставками нелегального алкоголя. Том Рейган — умный и авторитетный преступник, бывший советник одного из мафиозных боссов. Он своего рода антигерой, абсолютно аморальный, эгоистичный и подлый человек.

Но тем не менее своими незаурядными способностями оставаться живым после самых крутых разборок вызывает искренние симпатии. Он умело балансирует между двумя готовыми в любой момент сорваться бандами, пытаясь удержать их от начала войны. Но долго так продолжаться не может, и у Тома возникают такие проблемы, от решения которых будут зависеть судьбы слишком многих людей…

Перевод: профессиональный (полное дублирование), профессиональный (многоголосый закадровый), авторский (одноголосый закадровый)
Вид субтитров: вшитые отключаемые
Язык субтитров: русские, английские



Продолжительность: 01:54:51
Качество: BDRip (720p)

Видео: MPEG-4 AVC/H.264, 1280 x 694 (1,85:1), 7 000 kbps, 23.976 fps, 0.329 b/px
Аудио # 1: DTS, 6 ch, 768 kbps, 48 000 Hz [дублированный (Blu-Ray CEE)]
Аудио # 2: АС3, 6 ch, 448 kbps, 48 000 Hz [многоголосый закадровый]
Аудио # 3: АС3, 6 ch, 640 kbps, 48 000 Hz [одноголосый закадровый (A.Гаврилов)]
Аудио # 4: АС3, 6 ch, 640 kbps, 48 000 Hz [оригинальный]

Общее
Уникальный идентификатор : 238788640881498455485139304536125934637 (0xB3A504F66FB6D6B782BDC2ED38370C2D)
Полное имя : E:Video[1990] Перекресток Миллера [BDRip] [720p].mkv
Формат : Matroska
Версия формата : Version 4 / Version 2
Размер файла : 7,62 Гбайт
Продолжительность : 1 ч. 54 м.
Общий поток : 9498 Кбит/сек
Название фильма : Перекресток Миллера / Miller's Crossing (1990) BDRip [720p]
Дата кодирования : UTC 2014-11-29 09:22:16
Программа кодирования : mkvmerge v7.2.0 ('On Every Street') 32bit built on Sep 13 2014 15:42:11
Библиотека кодирования : libebml v1.3.0 + libmatroska v1.4.1
DURATION : 01:54:25.232000000
NUMBER_OF_FRAMES : 1218
NUMBER_OF_BYTES : 49736
_STATISTICS_WRITING_APP : mkvmerge v7.2.0 ('On Every Street') 32bit built on Sep 13 2014 15:42:11
_STATISTICS_WRITING_DATE_UTC : 2014-11-29 09:22:16
_STATISTICS_TAGS : BPS DURATION NUMBER_OF_FRAMES NUMBER_OF_BYTES

Видео
Идентификатор : 1
Формат : AVC
Формат/Информация : Advanced Video Codec
Профиль формата : High@L4.1
Параметр CABAC формата : Да
Параметр ReFrames формата : 4 кадра
Идентификатор кодека : V_MPEG4/ISO/AVC
Продолжительность : 1 ч. 54 м.
Битрейт : 7000 Кбит/сек
Ширина : 1280 пикселей
Высота : 694 пикселя
Соотношение сторон : 1,85:1
Режим частоты кадров : Постоянный
Частота кадров : 23,976 кадра/сек
Цветовое пространство : YUV
Субдискретизация насыщенности : 4:2:0
Битовая глубина : 8 бит
Тип развёртки : Прогрессивная
Бит/(Пиксели*Кадры) : 0.329
Размер потока : 5,47 Гбайт (72%)
Заголовок : [1990] Перекресток Миллера / Miller's Crossing [BDRip] [720p]
Библиотека кодирования : x264 core 115 r1995 c1e60b9
Настройки программы : cabac=1 / ref=3 / deblock=1:-3:-3 / analyse=0x3:0x133 / me=umh / subme=10 / psy=1 / psy_rd=1.00:0.00 / mixed_ref=1 / me_range=32 / chroma_me=1 / trellis=2 / 8x8dct=1 / cqm=0 / deadzone=21,11 / fast_pskip=0 / chroma_qp_offset=-2 / threads=18 / sliced_threads=0 / nr=0 / decimate=0 / interlaced=0 / bluray_compat=0 / constrained_intra=0 / bframes=7 / b_pyramid=2 / b_adapt=2 / b_bias=0 / direct=3 / weightb=1 / open_gop=0 / weightp=2 / keyint=250 / keyint_min=23 / scenecut=40 / intra_refresh=0 / rc_lookahead=40 / rc=2pass / mbtree=0 / bitrate=7000 / ratetol=1.0 / qcomp=0.65 / qpmin=0 / qpmax=40 / qpstep=4 / cplxblur=20.0 / qblur=0.5 / vbv_maxrate=50000 / vbv_bufsize=50000 / nal_hrd=none / ip_ratio=1.25 / pb_ratio=1.25 / aq=1:0.65
Язык : English
Default : Да
Forced : Нет
DURATION : 01:54:51.802000000
NUMBER_OF_FRAMES : 165238
NUMBER_OF_BYTES : 6029180164
_STATISTICS_WRITING_APP : mkvmerge v7.2.0 ('On Every Street') 32bit built on Sep 13 2014 15:42:11
_STATISTICS_WRITING_DATE_UTC : 2014-11-29 09:22:16
_STATISTICS_TAGS : BPS DURATION NUMBER_OF_FRAMES NUMBER_OF_BYTES

Аудио #1
Идентификатор : 2
Формат : DTS
Формат/Информация : Digital Theater Systems
Режим : 16
Параметр Endianness формата : Big
Идентификатор кодека : A_DTS
Продолжительность : 1 ч. 54 м.
Вид битрейта : Постоянный
Битрейт : 768 Кбит/сек
Каналы : 6 каналов
Расположение каналов : Front: L C R, Side: L R, LFE
Частота : 48,0 КГц
Битовая глубина : 24 бит
Метод сжатия : С потерями
Размер потока : 631 Мбайт (8%)
Заголовок : Дублированный (Blu-Ray CEE)
Язык : Russian
Default : Да
Forced : Нет

Аудио #2
Идентификатор : 3
Формат : AC-3
Формат/Информация : Audio Coding 3
Расширение режима : CM (complete main)
Параметр Endianness формата : Big
Идентификатор кодека : A_AC3
Продолжительность : 1 ч. 54 м.
Вид битрейта : Постоянный
Битрейт : 448 Кбит/сек
Каналы : 6 каналов
Расположение каналов : Front: L C R, Side: L R, LFE
Частота : 48,0 КГц
Битовая глубина : 16 бит
Метод сжатия : С потерями
Размер потока : 368 Мбайт (5%)
Заголовок : Многоголосый закадровый
Язык : Russian
Default : Нет
Forced : Нет

Аудио #3
Идентификатор : 4
Формат : AC-3
Формат/Информация : Audio Coding 3
Расширение режима : CM (complete main)
Параметр Endianness формата : Big
Идентификатор кодека : A_AC3
Продолжительность : 1 ч. 54 м.
Вид битрейта : Постоянный
Битрейт : 640 Кбит/сек
Каналы : 6 каналов
Расположение каналов : Front: L C R, Side: L R, LFE
Частота : 48,0 КГц
Битовая глубина : 16 бит
Метод сжатия : С потерями
Размер потока : 526 Мбайт (7%)
Заголовок : Одноголосый закадровый (A.Гаврилов)
Язык : Russian
Default : Нет
Forced : Нет

Аудио #4
Идентификатор : 5
Формат : AC-3
Формат/Информация : Audio Coding 3
Расширение режима : CM (complete main)
Параметр Endianness формата : Big
Идентификатор кодека : A_AC3
Продолжительность : 1 ч. 54 м.
Вид битрейта : Постоянный
Битрейт : 640 Кбит/сек
Каналы : 6 каналов
Расположение каналов : Front: L C R, Side: L R, LFE
Частота : 48,0 КГц
Битовая глубина : 16 бит
Метод сжатия : С потерями
Размер потока : 526 Мбайт (7%)
Заголовок : Оригинальный
Язык : English
Default : Нет
Forced : Нет

Текст #1
Идентификатор : 6
Формат : UTF-8
Идентификатор кодека : S_TEXT/UTF8
Идентификатор кодека/Информация : UTF-8 Plain Text
Заголовок : Russian
Язык : Russian
Default : Нет
Forced : Нет

Текст #2
Идентификатор : 7
Формат : UTF-8
Идентификатор кодека : S_TEXT/UTF8
Идентификатор кодека/Информация : UTF-8 Plain Text
Заголовок : English
Язык : English
Default : Нет
Forced : Нет

Меню
00:00:00.000 : en:00:00:00.000
00:06:52.829 : en:00:06:52.829
00:08:36.933 : en:00:08:36.933
00:10:35.677 : en:00:10:35.677
00:16:58.476 : en:00:16:58.476
00:21:36.253 : en:00:21:36.253
00:24:41.438 : en:00:24:41.438
00:27:41.869 : en:00:27:41.869
00:35:09.482 : en:00:35:09.482
00:38:07.243 : en:00:38:07.243
00:42:06.357 : en:00:42:06.357
00:47:10.327 : en:00:47:10.327
00:48:48.134 : en:00:48:48.134
00:53:34.378 : en:00:53:34.378
00:56:53.410 : en:00:56:53.410
01:03:52.037 : en:01:03:52.037
01:07:23.206 : en:01:07:23.206
01:10:35.231 : en:01:10:35.231
01:16:54.360 : en:01:16:54.360
01:21:44.525 : en:01:21:44.525
01:23:20.537 : en:01:23:20.537
01:24:58.260 : en:01:24:58.260
01:30:16.995 : en:01:30:16.995
01:33:01.367 : en:01:33:01.367
01:36:48.720 : en:01:36:48.720
01:39:30.047 : en:01:39:30.047
01:46:36.599 : en:01:46:36.599
01:50:59.903 : en:01:50:59.903
загрузка...
Правила, инструкции, FAQ!!!
Торрент  Добавлен [30 ноя 2014, 02:50] Скачать торрент
Скачать торрент
[ Размер 20.13 КБ / Просмотров 7 ]

Статус
Проверен 
 
Размер  7.62 ГБ
Приватный: Нет (DHT включён)
.torrent скачан  16
Как залить торрент? | Как скачать Torrent? | Как смотреть и слушать онлайн?  


     Отправить личное сообщение
   
Страница 1 из 1
Показать сообщения за:  Поле сортировки  
Начать новую тему Ответить на тему

   Похожие торренты   Автор   Ответы   Просмотры   Последнее сообщение 
В этой теме нет новых непрочитанных сообщений. Скачать торрент Перекресток / Collision / Intersections (2013) BDRip 720p | L, L1

в форуме 720p | 1080p, Размер: 5.32 ГБ, Здоровье: ???%

Anonymous

0
0|2

34
28

17 мар 2014, 22:16

Anonymous Перейти к последнему сообщению

В этой теме нет новых непрочитанных сообщений. Скачать торрент Проверен Переправа / Crossing Over (2009) BDRip [720p]

в форуме 720p | 1080p, Размер: 7.12 ГБ, Здоровье: 100%

Anonymous

0
19|1

113
0

18 сен 2014, 14:07

Anonymous Перейти к последнему сообщению

В этой теме нет новых непрочитанных сообщений. Скачать торрент Проверен Переправа 2 / The Crossing 2 (2015) BDRip 720p | iTunes

в форуме 720p | 1080p, Размер: 4.65 ГБ, Здоровье: 100%

Гость

0
51|33

426
66

27 дек 2015, 22:08

Гость Перейти к последнему сообщению

В этой теме нет новых непрочитанных сообщений. Скачать торрент Проверен Кот в сапогах 3Д / Puss in Boots 3D (Крис Миллер / Chris Miller) [2011, Мультфильм, Приключения, Комедия, Семейный, BDrip, 720p] Anaglyph (RAV) / Анаглиф (RAV)

в форуме 3D Мультфильмы, Размер: 3.94 ГБ, Здоровье: 0%

Anonymous

0
0|0

11
0

07 сен 2016, 18:10

Anonymous Перейти к последнему сообщению

В этой теме нет новых непрочитанных сообщений. Скачать торрент Проверен (rock) Steve Miller Band 1968 - 1990 (6 альбомов+Greatest Hits) - 1990 FLAC (image + .cue), lossless

в форуме Classic Rock & Hard Rock, Размер: 1.62 ГБ, Здоровье: 0%

Anonymous

0
0|0

2
0

05 сен 2016, 20:44

Anonymous Перейти к последнему сообщению



Сейчас этот форум просматривают: нет зарегистрированных пользователей и гости: 1


Вы не можете начинать темы
Вы не можете отвечать на сообщения
Вы не можете редактировать свои сообщения
Вы не можете удалять свои сообщения
Вы не можете добавлять вложения

Перейти:  

!ВНИМАНИЕ!
 Ресурс не предоставляет электронные версии произведений, а занимается лишь коллекционированием и каталогизацией ссылок, присылаемых и публикуемых на форуме нашими читателями. Если вы являетесь правообладателем какого-либо представленного материала и не желаете чтобы ссылка на него находилась в нашем каталоге, свяжитесь с нами и мы незамедлительно удалим её. Файлы для обмена на трекере предоставлены пользователями сайта, и администрация не несёт ответственности за их содержание. Просьба не заливать файлы, защищенные авторскими правами, а также файлы нелегального содержания!