На всех торрентах на трекере установлена скидка на скачивание в размере 100 процентов(а).
 Возможность скачивания торрента НЕ зависит от ограничений при низком ратио, низком аплоаде, требуемом ратио или требуемом аплоаде.


Начать новую тему Ответить на тему
Статистика раздачи
Размер: 10.36 ГБ | Добавлен: 30 ноя 2014, 02:39 | Скачали: 26
Сидеров: 39  [0 байт/сек]    Личеров: 82  [0 байт/сек]
Пред. тема | След. тема 

Автор
Сообщение

СообщениеДобавлено: 30 ноя 2014, 02:39 

Год выпуска: 2003
Производство: USA, Canada / Paramount Pictures, DreamWorks SKG, Davis Entertainment
Жанр: фантастика, боевик, триллер, детектив

Режиссер: Джон Ву
Актеры: Бен Аффлек, Ума Турман, Аарон Экхарт, Пол Джаматти, Колм Фиор, Джо Мортон, Майкл С. Холл, Питер Фридман, Кэтрин Моррис, Ивана Миличевич

Описание фильма: Талантливый ученый Майкл Дженнингс принимает участие в разработке специальных научных проектов крупных мировых корпораций. Последняя его работа наиболее сложна и секретна. По итогам работы над ней он должен получить 92 миллиона долларов, после чего пройти процедуру очистки памяти от момента начала работ до их завершения. Завершив работу и потеряв память, Майкл получает не чек, а лишь пакет с набором казалось бы случайных предметов. Ему говорят, что он нарушил контракт и оштрафован на сумму гонорара. С помощью полученных предметов Майкл начинает восстанавливать картину прошлого, при этом защищаясь от людей, нанявших его — ведь им совсем не выгодно, чтобы он вспомнил…

Перевод: профессиональный (полное дублирование), профессиональный (многоголосый закадровый), профессиональный (двуголосый закадровый), авторский (одноголосый закадровый)
Вид субтитров: вшитые отключаемые
Язык субтитров: русские, английские



Продолжительность: 01:58:46
Качество: BDRip (720p)

Видео: MPEG-4 AVC/H.264, 1280 x 546 (2,35:1), 8 884 kbps, 23.976 fps, 0.530 b/px
Аудио # 1: АС3, 6 ch, 448 kbps, 48 000 Hz [дублированный (Blu-Ray)]
Аудио # 2: АС3, 6 ch, 448 kbps, 48 000 Hz [двуголосый закадровый]
Аудио # 3: DTS, 6 ch, 755 kbps, 48 000 Hz [одноголосый закадровый (Ю.Живов)]
Аудио # 4: АС3, 2 ch, 192 kbps, 48 000 Hz [многоголосый закадровый (ТакТреба Продакшн) (Украинский)]
Аудио # 5: DTS, 6 ch, 1510 kbps, 48 000 Hz [оригинальный]

Общее
Уникальный идентификатор : 197722971389754228953100158248815357157 (0x94C00F23189DAB34997BBDDF6DBAECE5)
Полное имя : E:Video[2003] Час расплаты [BDRip] [720p].mkv
Формат : Matroska
Версия формата : Version 4 / Version 2
Размер файла : 10,4 Гбайт
Продолжительность : 1 ч. 58 м.
Общий поток : 12,5 Мбит/сек
Название фильма : Час расплаты / Paycheck (2003) BDRip [720p]
Дата кодирования : UTC 2014-11-28 20:43:35
Программа кодирования : mkvmerge v7.2.0 ('On Every Street') 32bit built on Sep 13 2014 15:42:11
Библиотека кодирования : libebml v1.3.0 + libmatroska v1.4.1
DURATION : 01:52:54.600000000
NUMBER_OF_FRAMES : 984
NUMBER_OF_BYTES : 34865
_STATISTICS_WRITING_APP : mkvmerge v7.2.0 ('On Every Street') 32bit built on Sep 13 2014 15:42:11
_STATISTICS_WRITING_DATE_UTC : 2014-11-28 20:43:35
_STATISTICS_TAGS : BPS DURATION NUMBER_OF_FRAMES NUMBER_OF_BYTES

Видео
Идентификатор : 1
Формат : AVC
Формат/Информация : Advanced Video Codec
Профиль формата : High@L4.1
Параметр CABAC формата : Да
Параметр ReFrames формата : 11 кадров
Идентификатор кодека : V_MPEG4/ISO/AVC
Продолжительность : 1 ч. 58 м.
Битрейт : 8884 Кбит/сек
Ширина : 1280 пикселей
Высота : 546 пикселей
Соотношение сторон : 2,35:1
Режим частоты кадров : Постоянный
Частота кадров : 23,976 кадра/сек
Цветовое пространство : YUV
Субдискретизация насыщенности : 4:2:0
Битовая глубина : 8 бит
Тип развёртки : Прогрессивная
Бит/(Пиксели*Кадры) : 0.530
Размер потока : 7,37 Гбайт (71%)
Заголовок : [2003] Час расплаты / Paycheck [BDRip] [720p]
Библиотека кодирования : x264 core 142 r2431 ac76440
Настройки программы : cabac=1 / ref=11 / deblock=1:-3:-3 / analyse=0x3:0x133 / me=tesa / subme=10 / psy=1 / psy_rd=1.00:0.00 / mixed_ref=1 / me_range=24 / chroma_me=1 / trellis=2 / 8x8dct=1 / cqm=0 / deadzone=21,11 / fast_pskip=0 / chroma_qp_offset=-2 / threads=12 / lookahead_threads=3 / sliced_threads=0 / nr=0 / decimate=1 / interlaced=0 / bluray_compat=0 / constrained_intra=0 / bframes=12 / b_pyramid=2 / b_adapt=2 / b_bias=0 / direct=3 / weightb=1 / open_gop=0 / weightp=2 / keyint=240 / keyint_min=23 / scenecut=40 / intra_refresh=0 / rc_lookahead=120 / rc=crf / mbtree=0 / crf=17.0 / qcomp=0.65 / qpmin=0 / qpmax=69 / qpstep=4 / vbv_maxrate=62500 / vbv_bufsize=78125 / crf_max=0.0 / nal_hrd=none / filler=0 / ip_ratio=1.10 / pb_ratio=1.10 / aq=1:1.00
Язык : English
Default : Да
Forced : Нет

Аудио #1
Идентификатор : 2
Формат : AC-3
Формат/Информация : Audio Coding 3
Расширение режима : CM (complete main)
Параметр Endianness формата : Big
Идентификатор кодека : A_AC3
Продолжительность : 1 ч. 58 м.
Вид битрейта : Постоянный
Битрейт : 448 Кбит/сек
Каналы : 6 каналов
Расположение каналов : Front: L C R, Side: L R, LFE
Частота : 48,0 КГц
Битовая глубина : 16 бит
Метод сжатия : С потерями
Размер потока : 381 Мбайт (4%)
Заголовок : Дублированный (Blu-Ray)
Язык : Russian
Default : Да
Forced : Нет

Аудио #2
Идентификатор : 3
Формат : AC-3
Формат/Информация : Audio Coding 3
Расширение режима : CM (complete main)
Параметр Endianness формата : Big
Идентификатор кодека : A_AC3
Продолжительность : 1 ч. 58 м.
Вид битрейта : Постоянный
Битрейт : 448 Кбит/сек
Каналы : 6 каналов
Расположение каналов : Front: L C R, Side: L R, LFE
Частота : 48,0 КГц
Битовая глубина : 16 бит
Метод сжатия : С потерями
Размер потока : 381 Мбайт (4%)
Заголовок : Двуголосый закадровый
Язык : Russian
Default : Нет
Forced : Нет

Аудио #3
Идентификатор : 4
Формат : DTS
Формат/Информация : Digital Theater Systems
Режим : 16
Параметр Endianness формата : Big
Идентификатор кодека : A_DTS
Продолжительность : 1 ч. 58 м.
Вид битрейта : Постоянный
Битрейт : 755 Кбит/сек
Каналы : 6 каналов
Расположение каналов : Front: L C R, Side: L R, LFE
Частота : 48,0 КГц
Битовая глубина : 24 бит
Метод сжатия : С потерями
Размер потока : 641 Мбайт (6%)
Заголовок : Одноголосый закадровый (Ю.Живов)
Язык : Russian
Default : Нет
Forced : Нет

Аудио #4
Идентификатор : 5
Формат : AC-3
Формат/Информация : Audio Coding 3
Расширение режима : CM (complete main)
Параметр Endianness формата : Big
Идентификатор кодека : A_AC3
Продолжительность : 1 ч. 58 м.
Вид битрейта : Постоянный
Битрейт : 192 Кбит/сек
Каналы : 2 канала
Расположение каналов : Front: L R
Частота : 48,0 КГц
Битовая глубина : 16 бит
Метод сжатия : С потерями
Размер потока : 163 Мбайт (2%)
Заголовок : Многоголосый закадровый (ТакТреба Продакшн)
Язык : Ukrainian
Default : Нет
Forced : Нет

Аудио #5
Идентификатор : 6
Формат : DTS
Формат/Информация : Digital Theater Systems
Режим : 16
Параметр Endianness формата : Big
Идентификатор кодека : A_DTS
Продолжительность : 1 ч. 58 м.
Вид битрейта : Постоянный
Битрейт : 1510 Кбит/сек
Каналы : 6 каналов
Расположение каналов : Front: L C R, Side: L R, LFE
Частота : 48,0 КГц
Битовая глубина : 24 бит
Метод сжатия : С потерями
Размер потока : 1,25 Гбайт (12%)
Заголовок : Оригинальный
Язык : English
Default : Нет
Forced : Нет

Текст #1
Идентификатор : 7
Формат : UTF-8
Идентификатор кодека : S_TEXT/UTF8
Идентификатор кодека/Информация : UTF-8 Plain Text
Заголовок : Russian
Язык : Russian
Default : Нет
Forced : Нет

Текст #2
Идентификатор : 8
Формат : UTF-8
Идентификатор кодека : S_TEXT/UTF8
Идентификатор кодека/Информация : UTF-8 Plain Text
Заголовок : English
Язык : English
Default : Нет
Forced : Нет

Меню
00:00:00.000 : :00:00:00.000
00:06:33.518 : :00:06:33.518
00:09:28.109 : :00:09:28.109
00:12:03.431 : :00:12:03.431
00:15:07.740 : :00:15:07.740
00:18:15.136 : :00:18:15.136
00:25:13.887 : :00:25:13.887
00:29:32.354 : :00:29:32.354
00:34:15.387 : :00:34:15.387
00:40:01.899 : :00:40:01.899
00:43:32.610 : :00:43:32.610
00:47:51.869 : :00:47:51.869
00:57:11.303 : :00:57:11.303
01:00:26.498 : :01:00:26.498
01:06:05.170 : :01:06:05.170
01:10:56.586 : :01:10:56.586
01:17:42.950 : :01:17:42.950
01:20:41.795 : :01:20:41.795
01:25:46.183 : :01:25:46.183
01:32:33.173 : :01:32:33.173
01:39:58.576 : :01:39:58.576
01:50:29.623 : :01:50:29.623
загрузка...
Правила, инструкции, FAQ!!!
Торрент  Добавлен [30 ноя 2014, 02:39] Скачать торрент
Скачать торрент
[ Размер 26.92 КБ / Просмотров 12 ]

Статус
Проверен 
 
Размер  10.36 ГБ
Приватный: Нет (DHT включён)
.torrent скачан  26
Как залить торрент? | Как скачать Torrent? | Как смотреть и слушать онлайн?  


     Отправить личное сообщение
   
Страница 1 из 1
Показать сообщения за:  Поле сортировки  
Начать новую тему Ответить на тему

   Похожие торренты   Автор   Ответы   Просмотры   Последнее сообщение 
В этой теме нет новых непрочитанных сообщений. Скачать торрент Час расплаты / Paycheck (2003) BDRip

в форуме Фантастика, Фэнтези, Размер: 1.46 ГБ, Здоровье: 100%

Anonymous

0
53|13

131
123

20 янв 2014, 12:34

Anonymous Перейти к последнему сообщению

В этой теме нет новых непрочитанных сообщений. Скачать торрент Час расплаты / Paycheck (Джон Ву / John Woo) [2003 г., фантастика, боевик, триллер, BDRip] Dub

в форуме Фантастика, Фэнтези, Размер: 2.56 ГБ, Здоровье: 100%

Anonymous

0
12|4

38
0

28 апр 2014, 22:43

Anonymous Перейти к последнему сообщению

В этой теме нет новых непрочитанных сообщений. Скачать торрент Проверен Монстр / Monster (2003) BDRip [H.264/720p]

в форуме 720p | 1080p, Размер: 6.44 ГБ, Здоровье: 100%

Гость

0
38|8

90
18

03 апр 2015, 01:23

Гость Перейти к последнему сообщению

В этой теме нет новых непрочитанных сообщений. Скачать торрент Проверен Невезучие / Tais-toi! (2003) [720p] BDRip

в форуме 720p | 1080p, Размер: 4.37 ГБ, Здоровье: ???%

Гость

0
0|1

39
0

01 фев 2015, 23:32

Гость Перейти к последнему сообщению

В этой теме нет новых непрочитанных сообщений. Скачать торрент Проверен Мечтатели / The Dreamers (2003) BDRip 720p

в форуме 720p | 1080p, Размер: 8.21 ГБ, Здоровье: 100%

Anonymous

0
8|1

42
242

10 авг 2014, 00:58

Anonymous Перейти к последнему сообщению



Сейчас этот форум просматривают: нет зарегистрированных пользователей и гости: 3


Вы не можете начинать темы
Вы не можете отвечать на сообщения
Вы не можете редактировать свои сообщения
Вы не можете удалять свои сообщения
Вы не можете добавлять вложения

Перейти:  

!ВНИМАНИЕ!
 Ресурс не предоставляет электронные версии произведений, а занимается лишь коллекционированием и каталогизацией ссылок, присылаемых и публикуемых на форуме нашими читателями. Если вы являетесь правообладателем какого-либо представленного материала и не желаете чтобы ссылка на него находилась в нашем каталоге, свяжитесь с нами и мы незамедлительно удалим её. Файлы для обмена на трекере предоставлены пользователями сайта, и администрация не несёт ответственности за их содержание. Просьба не заливать файлы, защищенные авторскими правами, а также файлы нелегального содержания!