На всех торрентах на трекере установлена скидка на скачивание в размере 100 процентов(а).
 Возможность скачивания торрента НЕ зависит от ограничений при низком ратио, низком аплоаде, требуемом ратио или требуемом аплоаде.


Начать новую тему Ответить на тему
Статистика раздачи
Размер: 6.76 ГБ | Добавлен: 30 ноя 2014, 02:03 | Скачали: 48
Сидеров: 69  [0 байт/сек]    Личеров: 89  [0 байт/сек]
Пред. тема | След. тема 

Автор
Сообщение

СообщениеДобавлено: 30 ноя 2014, 02:03 

Год выпуска: 2008
Производство: U.K., USA, South Africa, Germany / Rogue Pictures, Intrepid Pictures, Crystal Sky Pictures
Жанр: фантастика, боевик

Режиссер: Нил Маршалл
Актеры: Рона Митра, Боб Хоскинс, Дэвид О’Хара, Адриан Лестер, Рик Уорден, Шон Пертуи, Даррен Морфитт, МайАнна Бёринг, Малкольм МакДауэлл, Кэрин Петерсон

Описание фильма: Великобритания, недалёкое будущее. Смертельный и совершенно неизученный вирус, названный «Жнецом» («Reaper Virus») обрушился на страну, убивая десятки и сотни тысяч жителей. Не имея возможности решить проблему, правительство решает изолировать очаг заразы от не инфицированной местности, построив вокруг территории буйства «Жнеца» стену.

Проходит 30 лет, но вирус снова заявил о себе. Тогда было решено послать в заражённую область первоклассную команду спецназа для поисков возможных методов борьбы с вирусом. Ради выполнения цели и сохранения жизней ребятам придется пробиваться через настоящий оживший кошмар…

Перевод: профессиональный (полное дублирование)
Вид субтитров: вшитые отключаемые
Язык субтитров: русские, английские (SDH)



Продолжительность: 01:44:37
Качество: BDRip (720p)

Видео: MPEG-4 AVC/H.264, 1280 x 720 (16:9), 7 001 kbps, 25.000 fps, 0.304 b/px
Аудио # 1: DTS, 6 ch, 755 kbps, 48 000 Hz [дублированный (R5)]
Аудио # 2: DTS, 6 ch, 1509 kbps, 48 000 Hz [оригинальный]

Общее
Уникальный идентификатор : 195428155640863788675400517315998201279 (0x930617FC3B7E23B293EB65369AA335BF)
Полное имя : D:[2008] Судный день [Theatrical Cut] [BDRip] [720p].mkv
Формат : Matroska
Версия формата : Version 4 / Version 2
Размер файла : 6,76 Гбайт
Продолжительность : 1 ч. 44 м.
Общий поток : 9256 Кбит/сек
Название фильма : Судный день / Doomsday [Theatrical Cut] (2008) BDRip [720p]
Дата кодирования : UTC 2014-11-28 17:33:47
Программа кодирования : mkvmerge v7.2.0 ('On Every Street') 32bit built on Sep 13 2014 15:42:11
Библиотека кодирования : libebml v1.3.0 + libmatroska v1.4.1
DURATION : 01:36:30.120000000
NUMBER_OF_FRAMES : 1011
NUMBER_OF_BYTES : 33640
_STATISTICS_WRITING_APP : mkvmerge v7.2.0 ('On Every Street') 32bit built on Sep 13 2014 15:42:11
_STATISTICS_WRITING_DATE_UTC : 2014-11-28 17:33:47
_STATISTICS_TAGS : BPS DURATION NUMBER_OF_FRAMES NUMBER_OF_BYTES

Видео
Идентификатор : 1
Формат : AVC
Формат/Информация : Advanced Video Codec
Профиль формата : High@L4.1
Параметр CABAC формата : Да
Параметр ReFrames формата : 9 кадров
Идентификатор кодека : V_MPEG4/ISO/AVC
Продолжительность : 1 ч. 44 м.
Битрейт : 7001 Кбит/сек
Ширина : 1280 пикселей
Высота : 720 пикселей
Соотношение сторон : 16:9
Режим частоты кадров : Постоянный
Частота кадров : 25,000 кадров/сек
Цветовое пространство : YUV
Субдискретизация насыщенности : 4:2:0
Битовая глубина : 8 бит
Тип развёртки : Прогрессивная
Бит/(Пиксели*Кадры) : 0.304
Размер потока : 4,97 Гбайт (74%)
Заголовок : [2008] Судный день / Doomsday [Theatrical Cut] [BDRip] [720p]
Библиотека кодирования : x264 core 130 r2273 b3065e6
Настройки программы : cabac=1 / ref=9 / deblock=1:-3:-3 / analyse=0x3:0x113 / me=umh / subme=11 / psy=1 / psy_rd=0.00:0.00 / mixed_ref=1 / me_range=32 / chroma_me=1 / trellis=2 / 8x8dct=1 / cqm=0 / deadzone=21,11 / fast_pskip=0 / chroma_qp_offset=0 / threads=12 / lookahead_threads=3 / sliced_threads=0 / nr=0 / decimate=1 / interlaced=0 / bluray_compat=0 / constrained_intra=0 / bframes=12 / b_pyramid=2 / b_adapt=2 / b_bias=0 / direct=1 / weightb=1 / open_gop=0 / weightp=2 / keyint=250 / keyint_min=23 / scenecut=40 / intra_refresh=0 / rc_lookahead=40 / rc=2pass / mbtree=0 / bitrate=7001 / ratetol=1.0 / qcomp=0.60 / qpmin=0 / qpmax=69 / qpstep=4 / cplxblur=20.0 / qblur=0.5 / vbv_maxrate=50000 / vbv_bufsize=62500 / nal_hrd=none / ip_ratio=1.40 / pb_ratio=1.30 / aq=1:1.00
Язык : English
Default : Да
Forced : Нет
DURATION : 01:44:30.400000000
NUMBER_OF_FRAMES : 156760
NUMBER_OF_BYTES : 5484154804
_STATISTICS_WRITING_APP : mkvmerge v7.2.0 ('On Every Street') 32bit built on Sep 13 2014 15:42:11
_STATISTICS_WRITING_DATE_UTC : 2014-11-28 17:33:47
_STATISTICS_TAGS : BPS DURATION NUMBER_OF_FRAMES NUMBER_OF_BYTES

Аудио #1
Идентификатор : 2
Формат : DTS
Формат/Информация : Digital Theater Systems
Режим : 16
Параметр Endianness формата : Big
Идентификатор кодека : A_DTS
Продолжительность : 1 ч. 44 м.
Вид битрейта : Постоянный
Битрейт : 755 Кбит/сек
Каналы : 6 каналов
Расположение каналов : Front: L C R, Side: L R, LFE
Частота : 48,0 КГц
Битовая глубина : 24 бит
Метод сжатия : С потерями
Размер потока : 565 Мбайт (8%)
Заголовок : Дублированный (R5)
Язык : Russian
Default : Да
Forced : Нет

Аудио #2
Идентификатор : 3
Формат : DTS
Формат/Информация : Digital Theater Systems
Режим : 16
Параметр Endianness формата : Big
Идентификатор кодека : A_DTS
Продолжительность : 1 ч. 44 м.
Вид битрейта : Постоянный
Битрейт : 1509 Кбит/сек
Каналы : 6 каналов
Расположение каналов : Front: L C R, Side: L R, LFE
Частота : 48,0 КГц
Битовая глубина : 16 бит
Метод сжатия : С потерями
Размер потока : 1,10 Гбайт (16%)
Заголовок : Оригинальный
Язык : English
Default : Нет
Forced : Нет

Текст #1
Идентификатор : 4
Формат : UTF-8
Идентификатор кодека : S_TEXT/UTF8
Идентификатор кодека/Информация : UTF-8 Plain Text
Заголовок : Russian
Язык : Russian
Default : Нет
Forced : Нет

Текст #2
Идентификатор : 5
Формат : UTF-8
Идентификатор кодека : S_TEXT/UTF8
Идентификатор кодека/Информация : UTF-8 Plain Text
Заголовок : English (SDH)
Язык : English
Default : Нет
Forced : Нет

Меню
00:00:00.000 : :00:00:00.000
00:09:59.080 : :00:09:59.080
00:19:59.640 : :00:19:59.640
00:30:00.278 : :00:30:00.278
00:40:00.119 : :00:40:00.119
00:50:00.719 : :00:50:00.719
00:59:57.159 : :00:59:57.159
01:10:01.000 : :01:10:01.000
01:20:00.000 : :01:20:00.000
01:29:59.520 : :01:29:59.520
01:37:17.920 : :01:37:17.920
загрузка...
Правила, инструкции, FAQ!!!
Торрент  Добавлен [30 ноя 2014, 02:03] Скачать торрент
Скачать торрент
[ Размер 17.97 КБ / Просмотров 7 ]

Статус
Проверен 
 
Размер  6.76 ГБ
Приватный: Нет (DHT включён)
.torrent скачан  48
Как залить торрент? | Как скачать Torrent? | Как смотреть и слушать онлайн?  


     Отправить личное сообщение
   
Страница 1 из 1
Показать сообщения за:  Поле сортировки  
Начать новую тему Ответить на тему

   Похожие торренты   Автор   Ответы   Просмотры   Последнее сообщение 
В этой теме нет новых непрочитанных сообщений. Скачать торрент Судный день / Doomsday (Нил Маршалл / Neil Marshall) [2008, США, Германия, Великобритания, ЮАР, фантастика, боевик, триллер, BDRip] [Театральная версия / Theatrical Cut] Dub + Original + Subs (Rus, Eng)

в форуме Фантастика, Фэнтези, Размер: 2.18 ГБ, Здоровье: 100%

Anonymous

0
39|13

60
0

19 фев 2014, 09:53

Anonymous Перейти к последнему сообщению

В этой теме нет новых непрочитанных сообщений. Скачать торрент Проверен Пришелец / Impostor (2001) BDRip 720p | Theatrical Cut | D, P2, A

в форуме 720p | 1080p, Размер: 4.38 ГБ, Здоровье: 100%

Гость

0
107|84

36
125

21 фев 2015, 19:17

Гость Перейти к последнему сообщению

В этой теме нет новых непрочитанных сообщений. Скачать торрент Проверен Битва у Красной скалы / Red Cliff / Chi bi (2008) BDRip 1080p | D | Theatrical cut

в форуме 720p | 1080p, Размер: 11.55 ГБ, Здоровье: 100%

Anonymous

0
84|49

73
129

08 ноя 2014, 22:36

Anonymous Перейти к последнему сообщению

В этой теме нет новых непрочитанных сообщений. Скачать торрент Пол: Секретный материальчик / Paul (Грег Моттола / Greg Mottola) [2011, США, Великобритания, фантастика, комедия, приключения, BDRip 720p] [Theatrical Cut]

в форуме 720p | 1080p, Размер: 5 ГБ, Здоровье: 100%

Anonymous

0
47|16

16
0

25 фев 2014, 22:39

Anonymous Перейти к последнему сообщению

В этой теме нет новых непрочитанных сообщений. Скачать торрент Проверен (Progressive Metal) Doomsday - Doomsday - 1993, FLAC (image+.cue), lossless

в форуме Heavy, Power, Progressive (Metal), Размер: 322.55 МБ, Здоровье: 0%

Anonymous

0
0|0

0
0

12 окт 2016, 00:13

Anonymous Перейти к последнему сообщению



Сейчас этот форум просматривают: нет зарегистрированных пользователей и гости: 1


Вы не можете начинать темы
Вы не можете отвечать на сообщения
Вы не можете редактировать свои сообщения
Вы не можете удалять свои сообщения
Вы не можете добавлять вложения

Перейти:  

!ВНИМАНИЕ!
 Ресурс не предоставляет электронные версии произведений, а занимается лишь коллекционированием и каталогизацией ссылок, присылаемых и публикуемых на форуме нашими читателями. Если вы являетесь правообладателем какого-либо представленного материала и не желаете чтобы ссылка на него находилась в нашем каталоге, свяжитесь с нами и мы незамедлительно удалим её. Файлы для обмена на трекере предоставлены пользователями сайта, и администрация не несёт ответственности за их содержание. Просьба не заливать файлы, защищенные авторскими правами, а также файлы нелегального содержания!