На всех торрентах на трекере установлена скидка на скачивание в размере 100 процентов(а).
 Возможность скачивания торрента НЕ зависит от ограничений при низком ратио, низком аплоаде, требуемом ратио или требуемом аплоаде.


Начать новую тему Ответить на тему
Статистика раздачи
Размер: 7.65 ГБ | Добавлен: 29 ноя 2014, 20:01 | Скачали: 12
Сидеров: 49  [0 байт/сек]    Личеров: 4  [0 байт/сек]
Пред. тема | След. тема 

Автор
Сообщение

СообщениеДобавлено: 29 ноя 2014, 20:01 

    Название: Универсальный солдат 4
    Оригинальное: Universal Soldier: Day of Reckoning
    Год выхода: 2012
    Выпущено: Baumgarten Management, Foresight Unlimited, Signature Pictures
    Страна: США
    Жанр: Ужасы, фантастика, боевик, триллер, детектив
    Продолжительность: 01:53:38
    Перевод: Профессиональный дублированный
    Режиссер: Джон Хайамс
    В ролях: Скотт Эдкинс, Жан-Клод Ван Дамм, Андрей Орловский, Дольф Лундгрен, Кристофер Ван Варенберг, Джеймс Роулингс, Дэвид Дженсен, Мария Боннер, Рас Блэквелл, Остин Нолти




Сюжет фильма
    Все прежние солдаты программы «Unisol» объединились и вышли из-под контроля своих создателей, считая, что могут стать свободными, захватив власть. Они начинают активную подготовку для создания армии таких, как и они сами. Тогда правительство разрабатывает особого солдата, способного на сильные эмоциональные переживания, чтобы поддавшись мучительной жажде мести, он стал похож на обычного человека и, не вызывая подозрений, смог бы найти и уничтожить восставших...


Файл
    Кодек: x264
    Формат: MKV
    Качество: BDRip 1080p (Источник: Blu-ray)
    Видео: MPEG-4 AVC (2.35:1) 1918x818 pix, 23.976 fps, 8356 kbps, 0.222 Bits/Pixel
    Аудио I: Dolby Digital (5.1) 16 bit, 48 kHz, 448 kbps (DUB)
    Аудио II: Dolby Digital (5.1) 16 bit, 48 kHz, 640 kbps (ENG "Original")
    Субтитры: SRT Русские
    Меню: Сохранены оригинальные чаптеры Blu-ray

x264 [info]: frame I:1355 Avg QP:14.80 size:164474
x264 [info]: frame P:37327 Avg QP:16.29 size: 80997
x264 [info]: frame B:124782 Avg QP:18.54 size: 32351
General
Unique ID : 241470360098914420937919737194855701920 (0xB5A97FEDA07433FA9EE693DB9F9A9DA0)
Format : Matroska
Format version : Version 2
File size : 7.65 GiB
Duration : 1h 53mn
Overall bit rate : 9 636 Kbps
Movie name : Универсальный солдат 4 (2012) BDRip (1080p)
Encoded date : UTC 2014-11-29 05:27:02
Writing application : mkvmerge v5.8.0 ('No Sleep / Pillow') built on Sep 2 2012 15:37:04
Writing library : libebml v1.2.3 + libmatroska v1.3.0
Video
ID : 1
Format : AVC
Format/Info : Advanced Video Codec
Format profile : High@L4.1
Format settings, CABAC : Yes
Format settings, ReFrames : 5 frames
Codec ID : V_MPEG4/ISO/AVC
Duration : 1h 53mn
Bit rate : 8 356 Kbps
Width : 1 918 pixels
Height : 818 pixels
Display aspect ratio : 2.35:1
Frame rate mode : Constant
Frame rate : 23.976 fps
Color space : YUV
Chroma subsampling : 4:2:0
Bit depth : 8 bits
Scan type : Progressive
Bits/(Pixel*Frame) : 0.222
Stream size : 6.63 GiB (87%)
Title : Release by Alex260680
Writing library : x264 core 142 r2479 dd79a61
Encoding settings : cabac=1 / ref=5 / deblock=1:-3:-3 / analyse=0x3:0x133 / me=esa / subme=11 / psy=1 / psy_rd=1.00:0.05 / mixed_ref=1 / me_range=24 / chroma_me=1 / trellis=2 / 8x8dct=1 / cqm=0 / deadzone=21,11 / fast_pskip=0 / chroma_qp_offset=-3 / threads=6 / lookahead_threads=1 / sliced_threads=0 / nr=0 / decimate=1 / interlaced=0 / bluray_compat=0 / constrained_intra=0 / bframes=6 / b_pyramid=2 / b_adapt=2 / b_bias=0 / direct=3 / weightb=1 / open_gop=0 / weightp=2 / keyint=240 / keyint_min=23 / scenecut=40 / intra_refresh=0 / rc=crf / mbtree=0 / crf=18.0 / qcomp=0.60 / qpmin=0 / qpmax=69 / qpstep=4 / ip_ratio=1.40 / pb_ratio=1.30 / aq=1:0.90
Language : English
Default : Yes
Forced : No
Audio #1
ID : 2
Format : AC-3
Format/Info : Audio Coding 3
Mode extension : CM (complete main)
Format settings, Endianness : Big
Codec ID : A_AC3
Duration : 1h 53mn
Bit rate mode : Constant
Bit rate : 448 Kbps
Channel(s) : 6 channels
Channel positions : Front: L C R, Side: L R, LFE
Sampling rate : 48.0 KHz
Bit depth : 16 bits
Compression mode : Lossy
Stream size : 364 MiB (5%)
Title : DUB
Language : Russian
Default : Yes
Forced : No
Audio #2
ID : 3
Format : AC-3
Format/Info : Audio Coding 3
Mode extension : CM (complete main)
Format settings, Endianness : Big
Codec ID : A_AC3
Duration : 1h 53mn
Bit rate mode : Constant
Bit rate : 640 Kbps
Channel(s) : 6 channels
Channel positions : Front: L C R, Side: L R, LFE
Sampling rate : 48.0 KHz
Bit depth : 16 bits
Compression mode : Lossy
Stream size : 520 MiB (7%)
Title : Original
Language : English
Default : No
Forced : No
Text
ID : 4
Format : UTF-8
Codec ID : S_TEXT/UTF8
Codec ID/Info : UTF-8 Plain Text
Language : Russian
Default : No
Forced : No
Menu
00:00:00.000 : :Chapter 01
00:06:36.104 : :Chapter 02
00:16:42.459 : :Chapter 03
00:23:33.078 : :Chapter 04
00:29:24.012 : :Chapter 05
00:37:57.191 : :Chapter 06
00:49:45.983 : :Chapter 07
00:59:27.230 : :Chapter 08
01:08:42.451 : :Chapter 09
01:18:18.902 : :Chapter 10
01:27:51.891 : :Chapter 11
01:34:59.860 : :Chapter 12
загрузка...
Правила, инструкции, FAQ!!!
Торрент  Добавлен [29 ноя 2014, 20:01] Скачать торрент
Скачать торрент
[ Размер 19.77 КБ / Просмотров 3 ]

Статус
Проверен 
 
Размер  7.65 ГБ
Приватный: Нет (DHT включён)
.torrent скачан  12
Как залить торрент? | Как скачать Torrent? | Как смотреть и слушать онлайн?  


     Отправить личное сообщение
   
Страница 1 из 1
Показать сообщения за:  Поле сортировки  
Начать новую тему Ответить на тему

   Похожие торренты   Автор   Ответы   Просмотры   Последнее сообщение 
В этой теме нет новых непрочитанных сообщений. Скачать торрент Проверен Универсальный солдат 4 в 3Д / Universal Soldier: Day of Reckoning 3D (Джон Хайамс / John Hyams) [2012, Боевик, Фантастика, Триллер, BDrip-AVC] Half OverUnder / Вертикальная анаморфная стереопара

в форуме HD-Video в 3D, Размер: 10.05 ГБ, Здоровье: 100%

Anonymous

0
54|18

115
0

11 июл 2014, 12:20

Anonymous Перейти к последнему сообщению

В этой теме нет новых непрочитанных сообщений. Скачать торрент Проверен Я солдат / I am soldier (2014) HDRip | L2

в форуме Боевики, Размер: 1.45 ГБ, Здоровье: 100%

Anonymous

0
1313|146

55
7560

07 сен 2014, 21:31

Anonymous Перейти к последнему сообщению

В этой теме нет новых непрочитанных сообщений. Скачать торрент Большой солдат / Little Big Soldier / Da bing xiao jiang (2010) HDRip [H.264]

в форуме Боевики, Размер: 1.47 ГБ, Здоровье: 100%

Anonymous

0
4|2

56
0

22 янв 2014, 06:21

Anonymous Перейти к последнему сообщению

В этой теме нет новых непрочитанных сообщений. Скачать торрент Проверен Большой солдат / Da bing xiao jiang (2010) [1080p] BDRip

в форуме 720p | 1080p, Размер: 9.16 ГБ, Здоровье: 100%

Anonymous

0
5|1

25
0

07 ноя 2014, 15:02

Anonymous Перейти к последнему сообщению

В этой теме нет новых непрочитанных сообщений. Скачать торрент Схватка / The Grey (2012) BDRip 1080p | Лицензия

в форуме 720p | 1080p, Размер: 8.76 ГБ, Здоровье: 100%

Anonymous

0
17|0

31
3

29 янв 2014, 20:24

Anonymous Перейти к последнему сообщению



Сейчас этот форум просматривают: нет зарегистрированных пользователей и гости: 1


Вы не можете начинать темы
Вы не можете отвечать на сообщения
Вы не можете редактировать свои сообщения
Вы не можете удалять свои сообщения
Вы не можете добавлять вложения

Перейти:  

!ВНИМАНИЕ!
 Ресурс не предоставляет электронные версии произведений, а занимается лишь коллекционированием и каталогизацией ссылок, присылаемых и публикуемых на форуме нашими читателями. Если вы являетесь правообладателем какого-либо представленного материала и не желаете чтобы ссылка на него находилась в нашем каталоге, свяжитесь с нами и мы незамедлительно удалим её. Файлы для обмена на трекере предоставлены пользователями сайта, и администрация не несёт ответственности за их содержание. Просьба не заливать файлы, защищенные авторскими правами, а также файлы нелегального содержания!