На всех торрентах на трекере установлена скидка на скачивание в размере 100 процентов(а).
 Возможность скачивания торрента НЕ зависит от ограничений при низком ратио, низком аплоаде, требуемом ратио или требуемом аплоаде.


Начать новую тему Ответить на тему
Статистика раздачи
Размер: 11.54 ГБ | Добавлен: 29 ноя 2014, 00:59 | Скачали: 417
Сидеров: 57  [0 байт/сек]    Личеров: 28  [0 байт/сек]
Пред. тема | След. тема 

Автор
Сообщение

СообщениеДобавлено: 29 ноя 2014, 00:59 

    Русское название: 21 грамм
    Оригинальное название: 21 Grams
    Год выхода: 2003
    Жанр: триллер, драма, криминал
    Режиссер: Алехандро Гонсалес Иньярриту
    Выпущено: США
    Продолжительность: 02:04:36
    Перевод: Дублированный
    В ролях: Шон Пенн, Наоми Уоттс, Дэнни Хьюстон, Карли Наон, Клер Пакис, Бенисио Дель Торо, Ник Николс, Шарлотта Генсбур, Джон Рубинстайн, Эдди Марсан


Сюжет фильма
    Говорят, что каждый человек в момент смерти теряет 21 грамм. Столько весит горстка монет в пять центов, плитка шоколада, птица колибри…
    «21 грамм» — это история о надежде и человечности, жизнелюбии и выживании. Независимо от того, боитесь вы смерти или нет, она приходит, и в этот момент ваше тело становится на 21 грамм легче. Быть может, это вес человеческой души?


Файл
    Качество: BDRip 1080p (исходник Blu-ray Disc)
    Видео: 1916x1040, 12384 Кбит/сек, 23,976 кадр/сек, AVC, x264, High@L4.1, 1.85:1, 0.259 Бит/[Пиксели*Кадры]
    Аудио 1: AC-3, 448 Кбит/сек, 6 канала(ов), 48,0 КГц - Дублированный / Русский
    Аудио 2: AC-3, 448 Кбит/сек, 6 канала(ов), 48,0 КГц - Оригинал / Английский
    Субтитры: Русские | Полные, Английские | Полные
    Форсированные субтитры: Нет
    Чаптеры (Главы): Есть




Сэмпл
Автор Рипа:


Format : Matroska
Format version : Version 2
File size : 11.5 GiB
Duration : 2h 4mn
Overall bit rate : 13.3 Mbps
Movie name : 21 грамм.(2003).BDRip.1080p.[envy]
Encoded date : UTC 2014-11-28 15:31:33
Writing application : mkvmerge v5.8.0 ('No Sleep / Pillow') built on Sep 2 2012 15:37:04
Writing library : libebml v1.2.3 + libmatroska v1.3.0

Video
ID : 1
Format : AVC
Format/Info : Advanced Video Codec
Format profile : High@L4.1
Format settings, CABAC : Yes
Format settings, ReFrames : 4 frames
Codec ID : V_MPEG4/ISO/AVC
Duration : 2h 4mn
Bit rate : 12.4 Mbps
Width : 1 916 pixels
Height : 1 040 pixels
Display aspect ratio : 1.85:1
Frame rate mode : Constant
Frame rate : 23.976 fps
Color space : YUV
Chroma subsampling : 4:2:0
Bit depth : 8 bits
Scan type : Progressive
Bits/(Pixel*Frame) : 0.259
Stream size : 10.5 GiB (91%)
Title : 21 грамм.(2003).BDRip.1080p.[envy]
Writing library : x264 core 142 r2491 24e4fed
Encoding settings : cabac=1 / ref=4 / deblock=1:-3:-3 / analyse=0x3:0x113 / me=umh / subme=11 / psy=1 / psy_rd=1.00:0.00 / mixed_ref=1 / me_range=32 / chroma_me=1 / trellis=2 / 8x8dct=1 / cqm=0 / deadzone=21,11 / fast_pskip=0 / chroma_qp_offset=-2 / threads=12 / lookahead_threads=2 / sliced_threads=0 / nr=0 / decimate=1 / interlaced=0 / bluray_compat=0 / constrained_intra=0 / bframes=9 / b_pyramid=2 / b_adapt=2 / b_bias=0 / direct=3 / weightb=1 / open_gop=0 / weightp=2 / keyint=240 / keyint_min=23 / scenecut=40 / intra_refresh=0 / rc=2pass / mbtree=0 / bitrate=12384 / ratetol=2.0 / qcomp=0.60 / qpmin=0 / qpmax=69 / qpstep=4 / cplxblur=20.0 / qblur=0.5 / ip_ratio=1.40 / pb_ratio=1.30 / aq=2:1.00
Language : English
Default : Yes
Forced : No

Audio #1
ID : 2
Format : AC-3
Format/Info : Audio Coding 3
Mode extension : CM (complete main)
Format settings, Endianness : Big
Codec ID : A_AC3
Duration : 2h 4mn
Bit rate mode : Constant
Bit rate : 448 Kbps
Channel(s) : 6 channels
Channel positions : Front: L C R, Side: L R, LFE
Sampling rate : 48.0 KHz
Bit depth : 16 bits
Compression mode : Lossy
Stream size : 399 MiB (3%)
Title : Dub
Language : Russian
Default : Yes
Forced : No

Audio #2
ID : 3
Format : AC-3
Format/Info : Audio Coding 3
Mode extension : CM (complete main)
Format settings, Endianness : Big
Codec ID : A_AC3
Duration : 2h 4mn
Bit rate mode : Constant
Bit rate : 448 Kbps
Channel(s) : 6 channels
Channel positions : Front: L C R, Side: L R, LFE
Sampling rate : 48.0 KHz
Bit depth : 16 bits
Compression mode : Lossy
Stream size : 399 MiB (3%)
Title : Eng
Language : English
Default : No
Forced : No

Text #1
ID : 4
Format : UTF-8
Codec ID : S_TEXT/UTF8
Codec ID/Info : UTF-8 Plain Text
Title : full
Language : Russian
Default : No
Forced : No

Text #2
ID : 5
Format : UTF-8
Codec ID : S_TEXT/UTF8
Codec ID/Info : UTF-8 Plain Text
Title : full
Language : English
Default : No
Forced : No

Menu
00:00:00.000 : en:1. Mom Is Waiting for Us
00:04:03.535 : en:2. So This Is Death's Waiting Room?
00:07:17.103 : en:3. Jesus Is Our Hope
00:11:20.972 : en:4. Call an Ambulance
00:14:30.745 : en:5. Washing the Past
00:18:32.111 : en:6. There's No Hitting in This House
00:22:11.455 : en:7. Nobody Saw Him
00:26:51.944 : en:8. Have You Been Drinking?
00:31:30.806 : en:9. Heart-to-Heart
00:38:35.188 : en:10. Duty Bound
00:43:18.930 : en:11. The First Day of My New Life
00:45:32.521 : en:12. Life Does Not Go On
00:49:52.990 : en:13. Original Owner
00:52:48.415 : en:14. Bled Dry
00:54:51.455 : en:15. God Even Knows When a Single Hair Moves...
00:57:00.751 : en:16. Going to Heaven
00:59:47.417 : en:17. Your Friend
01:03:26.511 : en:18. Did You Bring What I Asked You For?
01:06:06.838 : en:19. Making Plans
01:10:44.907 : en:20. Coming Home
01:14:53.614 : en:21. Hidden Numbers
01:16:33.047 : en:22. You Shouldn't Have Done It
01:20:47.259 : en:23. Can I See You Again?
01:24:28.063 : en:24. A Good Heart
01:36:01.923 : en:25. Lack of Evidence
01:39:50.109 : en:26. Daddy, a Pigeon!
01:43:22.822 : en:27. Despair
01:45:18.145 : en:28. Red Shoelaces
01:49:31.690 : en:29. You're Pregnant
01:50:28.121 : en:30. How Many Times?
01:55:34.302 : en:31. 21 Grams
01:58:18.133 : en:32. End Titles

загрузка...
Правила, инструкции, FAQ!!!
Торрент  Добавлен [29 ноя 2014, 00:59] Скачать торрент
Скачать торрент
[ Размер 58.24 КБ / Просмотров 1 ]

Статус
Проверен 
 
Размер  11.54 ГБ
Приватный: Нет (DHT включён)
.torrent скачан  417
Как залить торрент? | Как скачать Torrent? | Как смотреть и слушать онлайн?  


     Отправить личное сообщение
   
Страница 1 из 1
Показать сообщения за:  Поле сортировки  
Начать новую тему Ответить на тему

   Похожие торренты   Автор   Ответы   Просмотры   Последнее сообщение 
В этой теме нет новых непрочитанных сообщений. Скачать торрент Проверен [iPhone] 21 грамм / 21 Grams (Алехандро Гонсалес Иньярриту /Alejandro Gonzalez Inarritu) [2003 г., Драма, HD-DVDRip]

в форуме Фильмы для iPod, iPhone, iPad, Размер: 918.13 МБ, Здоровье: 100%

Anonymous

0
8|2

96
2

18 май 2015, 10:54

Anonymous Перейти к последнему сообщению

В этой теме нет новых непрочитанных сообщений. Скачать торрент Проверен Пес Барбос и необычный кросс, Самогонщики, «Сто грамм» для храбрости (1961-1976) BDRip [H.264/720p-LQ]

в форуме 720p | 1080p, Размер: 2.05 ГБ, Здоровье: 100%

Anonymous

0
44|2

40
0

05 июл 2014, 23:34

Anonymous Перейти к последнему сообщению

В этой теме нет новых непрочитанных сообщений. Скачать торрент Проверен Самогонщики / Пес Барбос и необычный кросс / «Сто грамм» для храбрости (Леонид Гайдай, Борис Бушмелёв, Анатолий Маркелов, Георгий Щукин) [1961, 1976, СССР, Комедия, Blu-ray disc 1080p] + Original Rus

в форуме Наше кино (HD Video), Размер: 22.85 ГБ, Здоровье: 100%

Anonymous

0
44|15

78
0

12 апр 2015, 15:06

Anonymous Перейти к последнему сообщению

В этой теме нет новых непрочитанных сообщений. Скачать торрент Проверен Люди Икс 2 / X2 (2003) BDRip 1080p

в форуме 720p | 1080p, Размер: 6.94 ГБ, Здоровье: 100%

Anonymous

0
9|7

39
34

29 окт 2014, 23:48

Anonymous Перейти к последнему сообщению

В этой теме нет новых непрочитанных сообщений. Скачать торрент Проверен Азуми / Azumi (2003) BDRip 1080p | P, L1

в форуме 720p | 1080p, Размер: 11.15 ГБ, Здоровье: ???%

Anonymous

0
0|2

50
106

09 авг 2014, 14:26

Anonymous Перейти к последнему сообщению



Сейчас этот форум просматривают: нет зарегистрированных пользователей и гости: 1


Вы не можете начинать темы
Вы не можете отвечать на сообщения
Вы не можете редактировать свои сообщения
Вы не можете удалять свои сообщения
Вы не можете добавлять вложения

Перейти:  

!ВНИМАНИЕ!
 Ресурс не предоставляет электронные версии произведений, а занимается лишь коллекционированием и каталогизацией ссылок, присылаемых и публикуемых на форуме нашими читателями. Если вы являетесь правообладателем какого-либо представленного материала и не желаете чтобы ссылка на него находилась в нашем каталоге, свяжитесь с нами и мы незамедлительно удалим её. Файлы для обмена на трекере предоставлены пользователями сайта, и администрация не несёт ответственности за их содержание. Просьба не заливать файлы, защищенные авторскими правами, а также файлы нелегального содержания!