На всех торрентах на трекере установлена скидка на скачивание в размере 100 процентов(а).
 Возможность скачивания торрента НЕ зависит от ограничений при низком ратио, низком аплоаде, требуемом ратио или требуемом аплоаде.


Начать новую тему Ответить на тему
Статистика раздачи
Размер: 4.37 ГБ | Добавлен: 29 ноя 2014, 00:53 | Скачали: 244
Сидеров: 51  [0 байт/сек]    Личеров: 19  [0 байт/сек]
Пред. тема | След. тема 

Автор
Сообщение

СообщениеДобавлено: 29 ноя 2014, 00:53 

Название: Подарок
Оригинальное название: Echelon Conspiracy
Год выхода: 2009
Жанр: боевик, триллер, криминал, детектив
Режиссер: Грег Мэркс
В ролях: Шэйн Уэст, Эдвард Бернс, Тамара Фельдман, Мартин Шин, Гоша Куценко, Винг Рэймс, Джонатан Прайс, Сергей Губанов, Стивен Элдер, Сандра Де Суза, Грег Доналдсон, Тодд Дженсен, Тревор Уайт

О фильме:
Что будет, если Вы получите подарок, который выполнит все Ваши желания. Подарок, от которого Вы не сможете отказаться, но за который Вам придется поплатиться. Обычному парню Максу Питерсону судьба преподносит именно такой подарок. Его жизнь круто меняется …. Но, как долго он сможет наслаждаться привалившим счастьем и, какой ценой оно ему обернется?



Выпущено: США
Продолжительность: 01:45:17
Перевод: Дублированный


Кодек: x264
Качество: BDRip 1080p
Видео: 1920x800, 5498 Kbps, 23.976 fps
Звук: 48 kHz, AC3, 6c, 448 kbps
Субтитры: русские, английские

General
Unique ID : 178522804116871556555620751832459257646 (0x864E3DCDBB4DFC25A3F7A30903B4272E)
Complete name : Подарок.2009.BDRip.1080p.Rus.mkv
Format : Matroska
Format version : Version 2
File size : 4.37 GiB
Duration : 1h 45mn
Overall bit rate : 5 945 Kbps
Movie name : Подарок.2009
Encoded date : UTC 2012-05-15 10:44:07
Writing application : mkvmerge v5.5.0 ('Healer') built on Apr 24 2012 23:47:03
Writing library : libebml v1.2.3 + libmatroska v1.3.0

Video
ID : 1
Format : AVC
Format/Info : Advanced Video Codec
Format profile : High@L4.1
Format settings, CABAC : Yes
Format settings, ReFrames : 5 frames
Codec ID : V_MPEG4/ISO/AVC
Duration : 1h 45mn
Bit rate : 5 498 Kbps
Width : 1 920 pixels
Height : 800 pixels
Display aspect ratio : 2.40:1
Frame rate : 23.976 fps
Color space : YUV
Chroma subsampling : 4:2:0
Bit depth : 8 bits
Scan type : Progressive
Bits/(Pixel*Frame) : 0.149
Stream size : 3.96 GiB (90%)
Title : Rip by Boriy
Writing library : x264 core 124 r2197 69a0443
Encoding settings : cabac=1 / ref=5 / deblock=1:0:0 / analyse=0x3:0x113 / me=umh / subme=10 / psy=1 / psy_rd=1.00:0.10 / mixed_ref=1 / me_range=32 / chroma_me=1 / trellis=2 / 8x8dct=1 / cqm=0 / deadzone=21,11 / fast_pskip=0 / chroma_qp_offset=-3 / threads=12 / sliced_threads=0 / nr=0 / decimate=0 / interlaced=0 / bluray_compat=0 / constrained_intra=0 / bframes=5 / b_pyramid=2 / b_adapt=2 / b_bias=0 / direct=3 / weightb=1 / open_gop=0 / weightp=2 / keyint=240 / keyint_min=23 / scenecut=40 / intra_refresh=0 / rc_lookahead=60 / rc=2pass / mbtree=1 / bitrate=5498 / ratetol=1.0 / qcomp=0.60 / qpmin=0 / qpmax=69 / qpstep=4 / cplxblur=20.0 / qblur=0.5 / ip_ratio=1.40 / aq=1:1.00
Language : English
Default : Yes
Forced : No

Audio
ID : 2
Format : AC-3
Format/Info : Audio Coding 3
Mode extension : CM (complete main)
Format settings, Endianness : Big
Codec ID : A_AC3
Duration : 1h 45mn
Bit rate mode : Constant
Bit rate : 448 Kbps
Channel(s) : 6 channels
Channel positions : Front: L C R, Side: L R, LFE
Sampling rate : 48.0 KHz
Bit depth : 16 bits
Compression mode : Lossy
Stream size : 337 MiB (8%)
Title : Дубляж
Language : Russian
Default : Yes
Forced : No

Text #1
ID : 3
Format : UTF-8
Codec ID : S_TEXT/UTF8
Codec ID/Info : UTF-8 Plain Text
Language : Russian
Default : No
Forced : No

Text #2
ID : 4
Format : UTF-8
Codec ID : S_TEXT/UTF8
Codec ID/Info : UTF-8 Plain Text
Language : English
Default : No
Forced : No

Menu
00:00:00.000 : en:00:00:00.000
00:10:00.000 : en:00:10:00.000
00:20:00.000 : en:00:20:00.000
00:30:00.000 : en:00:30:00.000
00:40:00.000 : en:00:40:00.000
00:50:00.000 : en:00:50:00.000
01:00:00.000 : en:01:00:00.000
01:10:00.000 : en:01:10:00.000
01:20:00.000 : en:01:20:00.000
01:30:00.000 : en:01:30:00.000
01:40:00.000 : en:01:40:00.000
загрузка...
Правила, инструкции, FAQ!!!
Торрент  Добавлен [29 ноя 2014, 00:53] Скачать торрент
Скачать торрент
[ Размер 22.43 КБ / Просмотров 6 ]

Статус
Проверен 
 
Размер  4.37 ГБ
Приватный: Нет (DHT включён)
.torrent скачан  244
Как залить торрент? | Как скачать Torrent? | Как смотреть и слушать онлайн?  


     Отправить личное сообщение
   
Страница 1 из 1
Показать сообщения за:  Поле сортировки  
Начать новую тему Ответить на тему

   Похожие торренты   Автор   Ответы   Просмотры   Последнее сообщение 
В этой теме нет новых непрочитанных сообщений. Скачать торрент Проверен [iPhone] Подарок / Echelon Conspiracy (Грег Мэркс) [2009 г., Боевик, триллер, детектив, DVDRip]

в форуме Фильмы для iPod, iPhone, iPad, Размер: 817.11 МБ, Здоровье: 100%

Гость

0
1|0

18
0

18 май 2015, 10:53

Гость Перейти к последнему сообщению

В этой теме нет новых непрочитанных сообщений. Скачать торрент Проверен Подарок с характером (2014) BDRip 1080p | Лицензия

в форуме 720p | 1080p, Размер: 6.56 ГБ, Здоровье: 100%

Anonymous

0
74|4

31
92

10 авг 2014, 08:45

Anonymous Перейти к последнему сообщению

В этой теме нет новых непрочитанных сообщений. Скачать торрент Проверен (Heavy Metal/Hard Rock) Conspiracy - Conspiracy - 1982, MP3, 192 kbps

в форуме Heavy, Power, Progressive (Metal), Размер: 45.31 МБ, Здоровье: 0%

Anonymous

0
0|0

3
0

09 окт 2016, 13:05

Anonymous Перейти к последнему сообщению

В этой теме нет новых непрочитанных сообщений. Скачать торрент Проверен Linkin Park - New Divide (2009) BDRip 1080p (Джо Хан) [2009, Alternative rock, BDRip]

в форуме Концерты (HD-Video), Размер: 451.32 МБ, Здоровье: 100%

Anonymous

0
3|1

4
0

23 окт 2016, 11:54

Anonymous Перейти к последнему сообщению

В этой теме нет новых непрочитанных сообщений. Скачать торрент Проверен (Gothic Metal) [8LP][16/44] Epica - The Divine Conspiracy, The Classical Conspiracy, Requiem For The Indifferent, The Quantum Enigma - 2007-2014, FLAC (image+.cue)

в форуме Зарубежный рок (оцифровки), Размер: 2.1 ГБ, Здоровье: 100%

Anonymous

0
10|3

6
0

27 авг 2016, 11:16

Anonymous Перейти к последнему сообщению



Сейчас этот форум просматривают: нет зарегистрированных пользователей и гости: 1


Вы не можете начинать темы
Вы не можете отвечать на сообщения
Вы не можете редактировать свои сообщения
Вы не можете удалять свои сообщения
Вы не можете добавлять вложения

Перейти:  

!ВНИМАНИЕ!
 Ресурс не предоставляет электронные версии произведений, а занимается лишь коллекционированием и каталогизацией ссылок, присылаемых и публикуемых на форуме нашими читателями. Если вы являетесь правообладателем какого-либо представленного материала и не желаете чтобы ссылка на него находилась в нашем каталоге, свяжитесь с нами и мы незамедлительно удалим её. Файлы для обмена на трекере предоставлены пользователями сайта, и администрация не несёт ответственности за их содержание. Просьба не заливать файлы, защищенные авторскими правами, а также файлы нелегального содержания!