На всех торрентах на трекере установлена скидка на скачивание в размере 100 процентов(а).
 Возможность скачивания торрента НЕ зависит от ограничений при низком ратио, низком аплоаде, требуемом ратио или требуемом аплоаде.


Начать новую тему Ответить на тему
Статистика раздачи
Размер: 11.55 ГБ | Добавлен: 27 ноя 2014, 19:10 | Скачали: 68
Сидеров: 12  [0 байт/сек]    Личеров: 3  [0 байт/сек]
Пред. тема | След. тема 

Автор
Сообщение

СообщениеДобавлено: 27 ноя 2014, 19:10 

Название: Сияние
Оригинальное название: The Shining
Год выхода: 1980
Жанр: Триллер, ужасы
Режиссер: Стэнли Кубрик
В ролях: Джек Николсон, Шелли Дюволл, Дэнни Ллойд, Скэтман Крозерс, Энн Джексон, Тони Бертон, Барри Нелсон, Филип Стоун, Джо Теркел

О фильме:
Джек Торренс, приехал в элегантный уединенный отель, чтобы поработать смотрителем во время мертвого сезона вместе со своей женой и сыном. Торренс здесь раньше никогда не бывал. Или это не совсем так? Ответ лежит во мраке, сотканном из преступного кошмара.



Страна: США
Студия: Warner Bros.
Продолжительность: 02:23:46
Перевод: Многоголосый, авторский, оригинал


Кодек: h.264
Качество: BDRip 1080p
Видео: 1920x1080, 9775 Kbps, 23.976 fps, Bits/(Pixel*Frame) 0.197
Звук #1: AC3, 448 Kbps, 6 channels (Киномания)
Звук #2: AC3, 384 Kbps, 6 channels (НТВ)
Звук #3: AC3, 448 Kbps, 6 channels (Гаврилов)
Звук #4: AC3, 448 Kbps, 6 channels (Оригинал)
Субтитры: Русские, оригинал

x264 [info]: frame I:1097 Avg QP:18.04 size:189909
x264 [info]: frame P:48761 Avg QP:20.34 size: 92355
x264 [info]: frame B:156962 Avg QP:21.64 size: 37121


Format : Matroska
Format version : Version 2
File size : 11.6 GiB
Duration : 2h 23mn
Overall bit rate : 11.5 Mbps
Encoded date : UTC 2014-11-16 13:25:57
Writing application : mkvmerge v5.8.0 ('No Sleep / Pillow') built on Sep 2 2012 15:37:04
Writing library : libebml v1.2.3 + libmatroska v1.3.0

Video
ID : 1
Format : AVC
Format/Info : Advanced Video Codec
Format profile : High@L4.1
Format settings, CABAC : Yes
Format settings, ReFrames : 4 frames
Codec ID : V_MPEG4/ISO/AVC
Duration : 2h 23mn
Bit rate : 9 775 Kbps
Width : 1 920 pixels
Height : 1 080 pixels
Display aspect ratio : 16:9
Frame rate mode : Constant
Frame rate : 23.976 fps
Color space : YUV
Chroma subsampling : 4:2:0
Bit depth : 8 bits
Scan type : Progressive
Bits/(Pixel*Frame) : 0.197
Stream size : 9.59 GiB (83%)
Writing library : x264 core 130 r2273 b3065e6
Encoding settings : cabac=1 / ref=4 / deblock=1:-2:-2 / analyse=0x3:0x133 / me=umh / subme=10 / psy=1 / psy_rd=1.00:0.20 / mixed_ref=1 / me_range=32 / chroma_me=1 / trellis=2 / 8x8dct=1 / cqm=0 / deadzone=21,11 / fast_pskip=0 / chroma_qp_offset=-3 / threads=6 / lookahead_threads=1 / sliced_threads=0 / nr=0 / decimate=0 / interlaced=0 / bluray_compat=0 / constrained_intra=0 / bframes=8 / b_pyramid=2 / b_adapt=2 / b_bias=0 / direct=3 / weightb=1 / open_gop=0 / weightp=2 / keyint=240 / keyint_min=23 / scenecut=40 / intra_refresh=0 / rc=2pass / mbtree=0 / bitrate=9775 / ratetol=1.0 / qcomp=0.60 / qpmin=0 / qpmax=69 / qpstep=4 / cplxblur=20.0 / qblur=0.5 / ip_ratio=1.40 / pb_ratio=1.30 / aq=1:1.00
Language : English
Default : Yes
Forced : No

Audio #1
ID : 2
Format : AC-3
Format/Info : Audio Coding 3
Mode extension : CM (complete main)
Format settings, Endianness : Big
Codec ID : A_AC3
Duration : 2h 23mn
Bit rate mode : Constant
Bit rate : 448 Kbps
Channel(s) : 6 channels
Channel positions : Front: L C R, Side: L R, LFE
Sampling rate : 48.0 KHz
Bit depth : 16 bits
Compression mode : Lossy
Stream size : 461 MiB (4%)
Title : Kinomania
Language : Russian
Default : Yes
Forced : No

Audio #2
ID : 3
Format : AC-3
Format/Info : Audio Coding 3
Mode extension : CM (complete main)
Format settings, Endianness : Big
Codec ID : A_AC3
Duration : 2h 23mn
Bit rate mode : Constant
Bit rate : 384 Kbps
Channel(s) : 6 channels
Channel positions : Front: L C R, Side: L R, LFE
Sampling rate : 48.0 KHz
Bit depth : 16 bits
Compression mode : Lossy
Stream size : 395 MiB (3%)
Title : NTV
Language : Russian
Default : No
Forced : No

Audio #3
ID : 4
Format : AC-3
Format/Info : Audio Coding 3
Mode extension : CM (complete main)
Format settings, Endianness : Big
Codec ID : A_AC3
Duration : 2h 23mn
Bit rate mode : Constant
Bit rate : 448 Kbps
Channel(s) : 6 channels
Channel positions : Front: L C R, Side: L R, LFE
Sampling rate : 48.0 KHz
Bit depth : 16 bits
Compression mode : Lossy
Stream size : 461 MiB (4%)
Title : Gavrilov
Language : Russian
Default : No
Forced : No

Audio #4
ID : 5
Format : AC-3
Format/Info : Audio Coding 3
Mode extension : CM (complete main)
Format settings, Endianness : Big
Codec ID : A_AC3
Duration : 2h 23mn
Bit rate mode : Constant
Bit rate : 448 Kbps
Channel(s) : 6 channels
Channel positions : Front: L C R, Side: L R, LFE
Sampling rate : 48.0 KHz
Bit depth : 16 bits
Compression mode : Lossy
Stream size : 461 MiB (4%)
Title : Eng
Language : English
Default : No
Forced : No

Text #1
ID : 6
Format : UTF-8
Codec ID : S_TEXT/UTF8
Codec ID/Info : UTF-8 Plain Text
Title : Rus
Language : Russian
Default : Yes
Forced : No

Text #2
ID : 7
Format : UTF-8
Codec ID : S_TEXT/UTF8
Codec ID/Info : UTF-8 Plain Text
Title : Eng
Language : English
Default : No
Forced : No


загрузка...
Правила, инструкции, FAQ!!!
Торрент  Добавлен [27 ноя 2014, 19:10] Скачать торрент
Скачать торрент
[ Размер 29.53 КБ / Просмотров 5 ]

Статус
Проверен 
 
Размер  11.55 ГБ
Приватный: Нет (DHT включён)
.torrent скачан  68
Как залить торрент? | Как скачать Torrent? | Как смотреть и слушать онлайн?  


     Отправить личное сообщение
   
Страница 1 из 1
Показать сообщения за:  Поле сортировки  
Начать новую тему Ответить на тему

   Похожие торренты   Автор   Ответы   Просмотры   Последнее сообщение 
В этой теме нет новых непрочитанных сообщений. Скачать торрент Проверен Сияние / The Shining (1980) BDRip от HQCLUB | Complete Version

в форуме Ужасы, Размер: 2.92 ГБ, Здоровье: 100%

Anonymous

0
41|35

47
41

27 ноя 2014, 19:05

Anonymous Перейти к последнему сообщению

В этой теме нет новых непрочитанных сообщений. Скачать торрент Проверен Сияние / The Shining (Стэнли Кубрик / Stanley Kubrick) [1980, США, Великобритания, ужасы, триллер, драма, детектив, BDRip, 480p] MVO + MVO + Original + sub (rus, eng)

в форуме Фильмы для iPod, iPhone, iPad, Размер: 2.21 ГБ, Здоровье: 100%

Anonymous

0
35|11

38
0

11 май 2015, 01:40

Anonymous Перейти к последнему сообщению

В этой теме нет новых непрочитанных сообщений. Скачать торрент Меня зовут Троица / Lo chiamavano Trinita (1970) BDRip | P, P2, A | Полная версия

в форуме Вестерн, Размер: 2.05 ГБ, Здоровье: 100%

Anonymous

0
7|0

187
6

09 дек 2013, 07:55

Anonymous Перейти к последнему сообщению

В этой теме нет новых непрочитанных сообщений. Скачать торрент Проверен (Art-rock, Progressive Rock) Sky - Sky2 (remastered, полная версия-2LP) - 2005 (1980), FLAC (tracks+.cue), lossless

в форуме Progressive & Art-Rock, Размер: 474.58 МБ, Здоровье: 100%

Anonymous

0
5|1

0
0

30 авг 2016, 23:45

Anonymous Перейти к последнему сообщению

В этой теме нет новых непрочитанных сообщений. Скачать торрент Ярость / Rampage (Уве Болл / Uwe Boll) [2009, боевик, BDRip] [Полная версия / Uncut]

в форуме Боевики, Размер: 1.45 ГБ, Здоровье: 100%

Anonymous

0
14|5

95
0

19 фев 2014, 11:41

Anonymous Перейти к последнему сообщению



Сейчас этот форум просматривают: нет зарегистрированных пользователей и гости: 3


Вы не можете начинать темы
Вы не можете отвечать на сообщения
Вы не можете редактировать свои сообщения
Вы не можете удалять свои сообщения
Вы не можете добавлять вложения

Перейти:  

!ВНИМАНИЕ!
 Ресурс не предоставляет электронные версии произведений, а занимается лишь коллекционированием и каталогизацией ссылок, присылаемых и публикуемых на форуме нашими читателями. Если вы являетесь правообладателем какого-либо представленного материала и не желаете чтобы ссылка на него находилась в нашем каталоге, свяжитесь с нами и мы незамедлительно удалим её. Файлы для обмена на трекере предоставлены пользователями сайта, и администрация не несёт ответственности за их содержание. Просьба не заливать файлы, защищенные авторскими правами, а также файлы нелегального содержания!