На всех торрентах на трекере установлена скидка на скачивание в размере 100 процентов(а).
 Возможность скачивания торрента НЕ зависит от ограничений при низком ратио, низком аплоаде, требуемом ратио или требуемом аплоаде.


Начать новую тему Ответить на тему
Статистика раздачи
Размер: 11.66 ГБ | Добавлен: 27 ноя 2014, 18:37 | Скачали: 110
Сидеров: 9  [0 байт/сек]    Личеров: 5  [0 байт/сек]
Пред. тема | След. тема 

Автор
Сообщение

СообщениеДобавлено: 27 ноя 2014, 18:37 

Название: Соломон Кейн
Оригинальное название: Solomon Kane
Год выхода: 2009
Жанр: Фэнтези, Боевик, Приключения
Режиссер: Майкл Дж. Бассетт / Michael J. Bassett
В ролях: Джеймс Пьюрфой, Марк О’Нил, Роберт Орр, Ричард Райан, Франтишек Дик, Кристиан Данкли Кларк, Йен Уайт, Томас МакЕнчрой, Эндрю Уитлоу, Роберт Расселл

О фильме:
По мотивам рассказов Роберта Ирвина Говарда. Фильм повествует о событиях, происходящих в Англии шестнадцатого века. Английский солдат Соломон Кейн приходит к пониманию того, что вся его жизнь – это сплошной грех. Чтобы спасти свою душу и загладить поступки минувших дней, Кейн решает уйти с военной службы, начать мирную жизнь и обратиться к Богу за прощением. Кейн клянется никогда больше не брать в руки оружие, но когда на Землю вступают легионы тьмы, бывшему солдату ничего не остается, кроме того, как снова взять оружие, тем самым, нарушив данную клятву.

Страна: Франция, Чехия, Великобритания
Продолжительность: 01:44:09
Перевод: Дублированный


Кодек: H.264
Качество: BDRip-AVC [1080p]
Видео: MPEG-4, 1920x816, 23.976 fps, 10.0 mb/s, 0.266 bit/pixel
Звук:
Аудио: 1. DTS, 5.1, 48 kHz, ~1510 kbps | (Русский дублированный)
Аудио: 2. DTS, 5.1, 48 kHz, ~1510 kbps | (Оригинальный английский)
Аудио: 3. DTS, 5.1, 48 kHz, ~1510 kbps | (Авторский одноголосый , Ю. Немахов) отдельно
Аудио: 4. DTS, 5.1, 48 kHz, ~1510 kbps | (Украинский дублированный) отдельно
Субтитры:
1. Русские
2. Русские (voronine, sdh)
3. Украинские
4. Английские
General
Complete name : N: Соломон Кейн (2009) [1080p] BDRip-AVCСоломон Кейн (2009) [1080p] BDRip-AVC.mkv
Format : Matroska
File size : 9.47 GiB
Duration : 1h 44mn
Overall bit rate : 13.0 Mbps
Movie name : Solomon Kane [2009]
Encoded date : UTC 2011-10-24 17:42:06
Writing application : mkvmerge v5.0.1 ('Es ist Sommer') built on Oct 9 2011 11:55:43
Writing library : libebml v1.2.2 + libmatroska v1.3.0
Video #1
ID : 1
Format : AVC
Format/Info : Advanced Video Codec
Format profile : High@L4.1
Format settings, CABAC : Yes
Format settings, ReFrames : 5 frames
Muxing mode : Container profile=Unknown@4.1
Codec ID : V_MPEG4/ISO/AVC
Duration : 1h 44mn
Bit rate : 10 000 Kbps
Width : 1 920 pixels
Height : 816 pixels
Display aspect ratio : 2.35:1
Frame rate : 24.000 fps
Color space : YUV
Chroma subsampling : 4:2:0
Bit depth : 8 bits
Scan type : Progressive
Bits/(Pixel*Frame) : 0.266
Stream size : 7.08 GiB (75%)
Title : Solomon Kane [2009]
Writing library : x264 core 118 r2085 8a62835
Encoding settings : cabac=1 / ref=5 / deblock=1:-3:-3 / analyse=0x3:0x133 / me=tesa / subme=10 / psy=1 / psy_rd=1.10:0.10 / mixed_ref=1 / me_range=32 / chroma_me=1 / trellis=2 / 8x8dct=1 / cqm=0 / deadzone=21,11 / fast_pskip=0 / chroma_qp_offset=-3 / threads=12 / sliced_threads=0 / nr=0 / decimate=0 / interlaced=0 / bluray_compat=0 / constrained_intra=0 / bframes=6 / b_pyramid=2 / b_adapt=2 / b_bias=0 / direct=3 / weightb=1 / open_gop=0 / weightp=2 / keyint=250 / keyint_min=24 / scenecut=40 / intra_refresh=0 / rc_lookahead=60 / rc=2pass / mbtree=1 / bitrate=10000 / ratetol=1.0 / qcomp=0.75 / qpmin=0 / qpmax=69 / qpstep=4 / cplxblur=20.0 / qblur=0.5 / vbv_maxrate=50000 / vbv_bufsize=62500 / nal_hrd=none / ip_ratio=1.40 / aq=1:0.70
Language : English
Audio #2
ID : 2
Format : DTS
Format/Info : Digital Theater Systems
Codec ID : A_DTS
Duration : 1h 44mn
Bit rate mode : Constant
Bit rate : 1 510 Kbps
Channel(s) : 6 channels
Channel positions : Front: L C R, Side: L R, LFE
Sampling rate : 48.0 KHz
Bit depth : 16 bits
Stream size : 1.10 GiB (12%)
Title : RUS
Language : Russian
Audio #3
ID : 3
Format : DTS
Format/Info : Digital Theater Systems
Codec ID : A_DTS
Duration : 1h 44mn
Bit rate mode : Constant
Bit rate : 1 510 Kbps
Channel(s) : 6 channels
Channel positions : Front: L C R, Side: L R, LFE
Sampling rate : 48.0 KHz
Bit depth : 16 bits
Stream size : 1.10 GiB (12%)
Title : ENG
Language : English
Text #4
ID : 4
Format : UTF-8
Codec ID : S_TEXT/UTF8
Codec ID/Info : UTF-8 Plain Text
Title : RUS
Language : Russian
Text #5
ID : 5
Format : UTF-8
Codec ID : S_TEXT/UTF8
Codec ID/Info : UTF-8 Plain Text
Title : RUS, voronine
Language : Russian
Text #6
ID : 6
Format : UTF-8
Codec ID : S_TEXT/UTF8
Codec ID/Info : UTF-8 Plain Text
Title : UKR
Language : Ukrainian
Text #7
ID : 7
Format : UTF-8
Codec ID : S_TEXT/UTF8
Codec ID/Info : UTF-8 Plain Text
Title : ENG
Language : English

загрузка...
Правила, инструкции, FAQ!!!
Торрент  Добавлен [27 ноя 2014, 18:37] Скачать торрент
Скачать торрент
[ Размер 59.11 КБ / Просмотров 15 ]

Статус
Проверен 
 
Размер  11.66 ГБ
Приватный: Нет (DHT включён)
.torrent скачан  110
Как залить торрент? | Как скачать Torrent? | Как смотреть и слушать онлайн?  


     Отправить личное сообщение
   
Страница 1 из 1
Показать сообщения за:  Поле сортировки  
Начать новую тему Ответить на тему

   Похожие торренты   Автор   Ответы   Просмотры   Последнее сообщение 
В этой теме нет новых непрочитанных сообщений. Скачать торрент Соломон Кейн / Solomon Kane (Майкл Дж. Бассетт / Michael J. Bassett) [2009, Франция, Великобритания, Чехия, боевик, фэнтези, приключения, BDRip-AVC] DUB + AVO (Ю. Немахов) + DUB (Ukr) + original eng + Subs (rus, ukr, eng)

в форуме Боевики, Размер: 3.22 ГБ, Здоровье: 100%

Anonymous

0
32|11

34
0

12 фев 2014, 08:18

Anonymous Перейти к последнему сообщению

В этой теме нет новых непрочитанных сообщений. Скачать торрент Соломон Кейн / Solomon Kane (Майкл Дж. Бассетт / Michael J. Bassett) [2009 г., боевик, фэнтези, приключения, HDRip] DVO (TWIX)

в форуме Боевики, Размер: 743.2 МБ, Здоровье: 100%

Anonymous

0
1|0

42
0

11 фев 2014, 09:15

Anonymous Перейти к последнему сообщению

В этой теме нет новых непрочитанных сообщений. Скачать торрент Проверен Grant Solomon; Jane Solomon / Гранд Соломон; Джейн Соломон - The Scole Experiment / Скоулзский эксперимент. Научные доказательства жизни после жизни [2004, DOC, RUS]

в форуме Эзотерика, гадания, магия, фен-шуй, Размер: 5.28 МБ, Здоровье: 100%

Anonymous

0
3|1

3
0

28 авг 2016, 21:55

Anonymous Перейти к последнему сообщению

В этой теме нет новых непрочитанных сообщений. Скачать торрент Проверен Charmaine Solomon's Asian Favourites / Чармэйн Соломон - любимые блюда Азии [2001, PDF, ENG]

в форуме Кулинария, Размер: 6.28 МБ, Здоровье: ???%

Anonymous

0
0|5

4
1

19 окт 2016, 21:14

Anonymous Перейти к последнему сообщению

В этой теме нет новых непрочитанных сообщений. Скачать торрент Проверен Говард Роберт - Соломон Кейн. Клинок Судьбы [Макарова Валентина, 2010 г., 128 kbps, MP3]

в форуме Зарубежная фантастика, фэнтези, мистика, ужасы, Размер: 673.29 МБ, Здоровье: 0%

Anonymous

0
0|0

0
0

11 сен 2016, 11:37

Anonymous Перейти к последнему сообщению



Сейчас этот форум просматривают: нет зарегистрированных пользователей и гости: 1


Вы не можете начинать темы
Вы не можете отвечать на сообщения
Вы не можете редактировать свои сообщения
Вы не можете удалять свои сообщения
Вы не можете добавлять вложения

Перейти:  

!ВНИМАНИЕ!
 Ресурс не предоставляет электронные версии произведений, а занимается лишь коллекционированием и каталогизацией ссылок, присылаемых и публикуемых на форуме нашими читателями. Если вы являетесь правообладателем какого-либо представленного материала и не желаете чтобы ссылка на него находилась в нашем каталоге, свяжитесь с нами и мы незамедлительно удалим её. Файлы для обмена на трекере предоставлены пользователями сайта, и администрация не несёт ответственности за их содержание. Просьба не заливать файлы, защищенные авторскими правами, а также файлы нелегального содержания!