На всех торрентах на трекере установлена скидка на скачивание в размере 100 процентов(а).
 Возможность скачивания торрента НЕ зависит от ограничений при низком ратио, низком аплоаде, требуемом ратио или требуемом аплоаде.


Начать новую тему Ответить на тему
Статистика раздачи
Размер: 3.05 ГБ | Добавлен: 26 ноя 2014, 18:27 | Скачали: 1710
Сидеров: 87  [0 байт/сек]    Личеров: 11  [0 байт/сек]
Пред. тема | След. тема 

Автор
Сообщение

СообщениеДобавлено: 26 ноя 2014, 18:27 

Название: Оставленные
Оригинальное название: Left Behind
Год выхода: 2014
Жанр: фантастика, триллер, драма
Режиссер: Вик Армстронг

В ролях: Николас Кейдж, Чад Майкл Мюррэй, Касси Томсон, Никки Уилан, Джордин Спаркс, Лиа Томпсон, Куинтон Аарон, Мартин Клебба, Лаура Кайот, Стефани Онор

О фильме:
История летчика Рэйфорда Стила, столкнувшегося во время рейса с исчезновением нескольких пассажиров прямо из салона самолета. Вскоре становится известно о случаях бесследного исчезновения и в других местах. Людей охватывает паника.



Выпущено: США / eOne Entertainment, Stoney Lake Entertainment
Продолжительность: 01:45:35
Озвучивание: Дублированное [лицензия]


Формат: MKV
Качество: BDRip-720p
Видео: MPEG-4 AVC Video / 3500 kbps / 1280x536 / 25 fps / High Profile 4.1
Аудио: Dolby Digital Audio / 5.1 / 48 kHz / 640 kbps

General
Unique ID : 306864587548142096255035806925295220903 (0xE6DBF84504185E34F113768D5D5478A7)
Complete name : D:Оставленные.(2013).Blu-Ray.x264.720p.[-=DoMiNo=-].mkv
Format : Matroska
Format version : Version 4 / Version 2
File size : 3.05 GiB
Duration : 1h 45mn
Overall bit rate : 4 136 Kbps
Writing application : XviD4PSP 7.0 / 55.48.100
Writing library : XviD4PSP 7.0 / 55.48.100
COMMENT : MPEGTS > MKV / H264 > X264 VBR-2P 3500kbps Custom / AC3 > COPY

Video
ID : 1
Format : AVC
Format/Info : Advanced Video Codec
Format profile : High@L4.1
Format settings, CABAC : Yes
Format settings, ReFrames : 9 frames
Codec ID : V_MPEG4/ISO/AVC
Duration : 1h 45mn
Bit rate : 3 500 Kbps
Width : 1 280 pixels
Height : 536 pixels
Display aspect ratio : 2.40:1
Frame rate mode : Constant
Frame rate : 25.000 fps
Color space : YUV
Chroma subsampling : 4:2:0
Bit depth : 8 bits
Scan type : Progressive
Bits/(Pixel*Frame) : 0.204
Stream size : 2.52 GiB (83%)
Writing library : x264 core 142 r2479M dd79a61
Encoding settings : cabac=1 / ref=9 / deblock=1:-3:-3 / analyse=0x3:0x133 / me=umh / subme=11 / psy=1 / psy_rd=1,00:0,70 / mixed_ref=1 / me_range=32 / chroma_me=1 / trellis=2 / 8x8dct=1 / cqm=0 / deadzone=21,11 / fast_pskip=0 / chroma_qp_offset=-4 / threads=16 / lookahead_threads=2 / sliced_threads=0 / nr=0 / decimate=1 / interlaced=0 / bluray_compat=0 / constrained_intra=0 / bframes=8 / b_pyramid=2 / b_adapt=2 / b_bias=0 / direct=3 / weightb=1 / open_gop=0 / weightp=2 / keyint=250 / keyint_min=25 / scenecut=40 / intra_refresh=0 / rc=2pass / mbtree=0 / bitrate=3500 / ratetol=1,0 / qcomp=0,70 / qpmin=1 / qpmax=69 / qpstep=4 / cplxblur=20,0 / qblur=0,5 / ip_ratio=1,40 / pb_ratio=1,30 / aq=1:1,00
Default : Yes
Forced : No

Audio
ID : 2
Format : AC-3
Format/Info : Audio Coding 3
Mode extension : CM (complete main)
Format settings, Endianness : Big
Codec ID : A_AC3
Duration : 1h 45mn
Bit rate mode : Constant
Bit rate : 640 Kbps
Channel(s) : 6 channels
Channel positions : Front: L C R, Side: L R, LFE
Sampling rate : 48.0 KHz
Bit depth : 16 bits
Compression mode : Lossy
Stream size : 483 MiB (15%)
Default : Yes
Forced : No





загрузка...
Правила, инструкции, FAQ!!!
Торрент  Добавлен [26 ноя 2014, 18:27] Скачать торрент
Скачать торрент
[ Размер 15.93 КБ / Просмотров 9 ]

Статус
Проверен 
 
Размер  3.05 ГБ
Приватный: Нет (DHT включён)
.torrent скачан  1710
Как залить торрент? | Как скачать Torrent? | Как смотреть и слушать онлайн?  


     Отправить личное сообщение
   
Страница 1 из 1
Показать сообщения за:  Поле сортировки  
Начать новую тему Ответить на тему

   Похожие торренты   Автор   Ответы   Просмотры   Последнее сообщение 
В этой теме нет новых непрочитанных сообщений. Скачать торрент Проверен Оставленные / Left Behind (2014) BDRip [576p] iPad

в форуме Фильмы для iPod, iPhone, iPad, Размер: 1.72 ГБ, Здоровье: 0%

Гость

0
0|0

218
0

12 дек 2014, 22:53

Гость Перейти к последнему сообщению

В этой теме нет новых непрочитанных сообщений. Оставленные / Left Behind (2014) HDTVRip | Чистый звук

в форуме Новинки кино, Размер: 1.46 ГБ, Здоровье: 100%

Anonymous

0
13|3

670
1

26 окт 2014, 08:56

Anonymous Перейти к последнему сообщению

В этой теме нет новых непрочитанных сообщений. Скачать торрент Дубровский (2014) BDRip 720p | Лицензия

в форуме 720p | 1080p, Размер: 4.17 ГБ, Здоровье: 100%

Anonymous

0
29|0

43
197

15 апр 2014, 13:43

Anonymous Перейти к последнему сообщению

В этой теме нет новых непрочитанных сообщений. Скачать торрент Проверен Поддубный (2014) BDRip 720p | Лицензия

в форуме Новинки кино, Размер: 4.79 ГБ, Здоровье: 100%

Anonymous

0
517|11

150
370

23 авг 2014, 22:50

Anonymous Перейти к последнему сообщению

В этой теме нет новых непрочитанных сообщений. Скачать торрент Проверен Кухня в Париже (2014) BDRip 720p | Лицензия

в форуме 720p | 1080p, Размер: 5.28 ГБ, Здоровье: 0%

Anonymous

0
0|0

24
0

12 июн 2014, 09:01

Anonymous Перейти к последнему сообщению



Сейчас этот форум просматривают: нет зарегистрированных пользователей и гости: 3


Вы не можете начинать темы
Вы не можете отвечать на сообщения
Вы не можете редактировать свои сообщения
Вы не можете удалять свои сообщения
Вы не можете добавлять вложения

Перейти:  

!ВНИМАНИЕ!
 Ресурс не предоставляет электронные версии произведений, а занимается лишь коллекционированием и каталогизацией ссылок, присылаемых и публикуемых на форуме нашими читателями. Если вы являетесь правообладателем какого-либо представленного материала и не желаете чтобы ссылка на него находилась в нашем каталоге, свяжитесь с нами и мы незамедлительно удалим её. Файлы для обмена на трекере предоставлены пользователями сайта, и администрация не несёт ответственности за их содержание. Просьба не заливать файлы, защищенные авторскими правами, а также файлы нелегального содержания!