На всех торрентах на трекере установлена скидка на скачивание в размере 100 процентов(а).
 Возможность скачивания торрента НЕ зависит от ограничений при низком ратио, низком аплоаде, требуемом ратио или требуемом аплоаде.


Начать новую тему Ответить на тему
Статистика раздачи
Размер: 7.76 ГБ | Добавлен: 24 ноя 2014, 23:43 | Скачали: 88
Сидеров: 68  [0 байт/сек]    Личеров: 74  [0 байт/сек]
Пред. тема | След. тема 

Автор
Сообщение

СообщениеДобавлено: 24 ноя 2014, 23:43 

    Русское название: Ракетчик
    Оригинальное название: The Rocketeer
    Год выхода: 1991
    Жанр: фантастика, боевик, приключения, семейный
    Режиссер: Джо Джонстон
    Выпущено: США
    Продолжительность: 01:48:37
    Перевод: Профессиональный (Многоголосый закадровый), Авторский (А. Михалев) (А. Гаврилов)
    В ролях: Билл Кэмпбелл, Дженнифер Коннелли, Алан Аркин, Тимоти Далтон, Пол Сорвино, Терри О'Куинн, Эд Лотер, Джеймс Хэнди, Тайни Рон, Роберт Миранда


Сюжет фильма
    Америка тридцатых годов, золотое время! Гангстеры, нацистские шпионы и допотопные аэропланы, заполнившие небо. Молодой пилот Клифф Сэкорд находит сверхсекретное устройство — ракетный ранец, позволяющий подниматься в воздух. Вскоре в газетах появляются сообщения о таинственном человеке, парящем в небе словно ракета.
    Журналисты дают ему громкое прозвище «Ракетчик». По его следу пускаются буквально все: репортеры, агенты ФБР и фашисты, больше других заинтересованные в совершенном оружии. В облаках снова мелькнула стремительная тень. Мертвая петля вокруг его шеи затягивается все туже.


Файл
    Качество: BDRip 1080p (исходник Blu-ray Disc Remux)
    Видео: 1920x818, 8700 Кбит/сек, 23,976 кадр/сек, AVC, x264, High@L4.1, 2.35:1, 0.231 Бит/[Пиксели*Кадры]
    Аудио 1: AC-3, 448 Кбит/сек, 6 канала(ов), 48,0 КГц - Двухголосый закадровый, Видеосервис / Русский
    Аудио 2: AC-3, 448 Кбит/сек, 6 канала(ов), 48,0 КГц - Одноголосый закадровый, А. Михалев / Русский
    Аудио 3: AC-3, 192 Кбит/сек, 2 канала(ов), 48,0 КГц - Одноголосый закадровый, А. Гаврилов / Русский
    Аудио 4: AC-3, 448 Кбит/сек, 6 канала(ов), 48,0 КГц - Оригинал / Английский
    Субтитры: Английские | Полные
    Форсированные субтитры: Нет
    Чаптеры (Главы): Есть




Сэмпл
Автор Рипа: Сообщество:



Format : Matroska
Format version : Version 2
File size : 7.76 GiB
Duration : 1h 48mn
Overall bit rate : 10.2 Mbps
Movie name : Ракетчик.(1991).BDRip.1080p.[envy]
Encoded date : UTC 2014-11-24 13:33:00
Writing application : mkvmerge v5.8.0 ('No Sleep / Pillow') built on Sep 2 2012 15:37:04
Writing library : libebml v1.2.3 + libmatroska v1.3.0

Video
ID : 1
Format : AVC
Format/Info : Advanced Video Codec
Format profile : High@L4.1
Format settings, CABAC : Yes
Format settings, ReFrames : 5 frames
Codec ID : V_MPEG4/ISO/AVC
Duration : 1h 48mn
Bit rate : 8 700 Kbps
Width : 1 920 pixels
Height : 818 pixels
Display aspect ratio : 2.35:1
Frame rate mode : Constant
Frame rate : 23.976 fps
Color space : YUV
Chroma subsampling : 4:2:0
Bit depth : 8 bits
Scan type : Progressive
Bits/(Pixel*Frame) : 0.231
Stream size : 6.44 GiB (83%)
Title : Ракетчик.(1991).BDRip.1080p.[envy]
Writing library : x264 core 142 r2491 24e4fed
Encoding settings : cabac=1 / ref=5 / deblock=1:0:0 / analyse=0x3:0x113 / me=umh / subme=11 / psy=1 / psy_rd=1.00:0.00 / mixed_ref=1 / me_range=32 / chroma_me=1 / trellis=2 / 8x8dct=1 / cqm=0 / deadzone=21,11 / fast_pskip=0 / chroma_qp_offset=-2 / threads=12 / lookahead_threads=2 / sliced_threads=0 / nr=0 / decimate=1 / interlaced=0 / bluray_compat=0 / constrained_intra=0 / bframes=7 / b_pyramid=2 / b_adapt=2 / b_bias=0 / direct=3 / weightb=1 / open_gop=0 / weightp=2 / keyint=240 / keyint_min=23 / scenecut=40 / intra_refresh=0 / rc=2pass / mbtree=0 / bitrate=8700 / ratetol=2.0 / qcomp=0.60 / qpmin=0 / qpmax=69 / qpstep=4 / cplxblur=20.0 / qblur=0.5 / ip_ratio=1.40 / pb_ratio=1.30 / aq=2:1.00
Language : English
Default : Yes
Forced : No

Audio #1
ID : 2
Format : AC-3
Format/Info : Audio Coding 3
Mode extension : CM (complete main)
Format settings, Endianness : Big
Codec ID : A_AC3
Duration : 1h 48mn
Bit rate mode : Constant
Bit rate : 448 Kbps
Channel(s) : 6 channels
Channel positions : Front: L C R, Side: L R, LFE
Sampling rate : 48.0 KHz
Bit depth : 16 bits
Compression mode : Lossy
Stream size : 348 MiB (4%)
Title : DVO
Language : Russian
Default : Yes
Forced : No

Audio #2
ID : 3
Format : AC-3
Format/Info : Audio Coding 3
Mode extension : CM (complete main)
Format settings, Endianness : Big
Codec ID : A_AC3
Duration : 1h 48mn
Bit rate mode : Constant
Bit rate : 448 Kbps
Channel(s) : 6 channels
Channel positions : Front: L C R, Side: L R, LFE
Sampling rate : 48.0 KHz
Bit depth : 16 bits
Compression mode : Lossy
Stream size : 348 MiB (4%)
Title : Marchenko
Language : Russian
Default : No
Forced : No

Audio #3
ID : 4
Format : AC-3
Format/Info : Audio Coding 3
Mode extension : CM (complete main)
Format settings, Endianness : Big
Codec ID : A_AC3
Duration : 1h 48mn
Bit rate mode : Constant
Bit rate : 192 Kbps
Channel(s) : 2 channels
Channel positions : Front: L R
Sampling rate : 48.0 KHz
Bit depth : 16 bits
Compression mode : Lossy
Stream size : 149 MiB (2%)
Title : Gavrilov
Language : Russian
Default : No
Forced : No

Audio #4
ID : 5
Format : AC-3
Format/Info : Audio Coding 3
Mode extension : CM (complete main)
Format settings, Endianness : Big
Codec ID : A_AC3
Duration : 1h 48mn
Bit rate mode : Constant
Bit rate : 448 Kbps
Channel(s) : 6 channels
Channel positions : Front: L C R, Side: L R, LFE
Sampling rate : 48.0 KHz
Bit depth : 16 bits
Compression mode : Lossy
Stream size : 348 MiB (4%)
Title : Eng
Language : English
Default : No
Forced : No

Text
ID : 6
Format : UTF-8
Codec ID : S_TEXT/UTF8
Codec ID/Info : UTF-8 Plain Text
Title : full
Language : English
Default : No
Forced : No

Menu
00:00:00.000 : en:00:00:00.000
00:12:37.173 : en:00:12:37.173
00:18:20.724 : en:00:18:20.724
00:23:50.762 : en:00:23:50.762
00:31:10.618 : en:00:31:10.618
00:37:43.094 : en:00:37:43.094
00:47:26.718 : en:00:47:26.718
00:53:39.883 : en:00:53:39.883
01:01:34.649 : en:01:01:34.649
01:08:44.787 : en:01:08:44.787
01:12:45.819 : en:01:12:45.819
01:22:55.303 : en:01:22:55.303
01:26:41.029 : en:01:26:41.029
01:40:56.425 : en:01:40:56.425
01:44:03.695 : en:01:44:03.695

загрузка...
Правила, инструкции, FAQ!!!
Торрент  Добавлен [24 ноя 2014, 23:43] Скачать торрент
Скачать торрент
[ Размер 39.29 КБ / Просмотров 8 ]

Статус
Проверен 
 
Размер  7.76 ГБ
Приватный: Нет (DHT включён)
.torrent скачан  88
Как залить торрент? | Как скачать Torrent? | Как смотреть и слушать онлайн?  


     Отправить личное сообщение
   
Страница 1 из 1
Показать сообщения за:  Поле сортировки  
Начать новую тему Ответить на тему

   Похожие торренты   Автор   Ответы   Просмотры   Последнее сообщение 
В этой теме нет новых непрочитанных сообщений. Скачать торрент Проверен Ракетчик / The Rocketeer (1991) BDRip

в форуме Фантастика, Фэнтези, Размер: 2.18 ГБ, Здоровье: 100%

Anonymous

0
12|2

54
72

24 ноя 2014, 23:49

Anonymous Перейти к последнему сообщению

В этой теме нет новых непрочитанных сообщений. Скачать торрент Проверен Дорз / The Doors (1991) BDRip [1080p]

в форуме Концерты (HD-Video), Размер: 12.71 ГБ, Здоровье: 100%

Anonymous

0
25|1

121
6

09 авг 2014, 21:03

Anonymous Перейти к последнему сообщению

В этой теме нет новых непрочитанных сообщений. Скачать торрент Проверен Гудзонский ястреб / Hudson Hawk (1991) BDRip 1080p | D, P, A

в форуме 720p | 1080p, Размер: 11.01 ГБ, Здоровье: 100%

Гость

0
34|1

39
258

10 фев 2015, 18:23

Гость Перейти к последнему сообщению

В этой теме нет новых непрочитанных сообщений. Скачать торрент Проверен Тельма и Луиза / Thelma & Louise (1991) BDRip 1080p

в форуме 720p | 1080p, Размер: 7.96 ГБ, Здоровье: 33%

Гость

0
1|3

83
3

28 фев 2016, 23:47

Гость Перейти к последнему сообщению

В этой теме нет новых непрочитанных сообщений. Скачать торрент Проверен The Rolling Stones: Live at the Max (Ноэль Аршамбо / Noel Archambault) [1991, Рок, BDRip 1080p]

в форуме Концерты (HD-Video), Размер: 14.08 ГБ, Здоровье: 100%

Anonymous

0
1|0

16
0

23 окт 2016, 14:39

Anonymous Перейти к последнему сообщению



Сейчас этот форум просматривают: нет зарегистрированных пользователей и гости: 1


Вы не можете начинать темы
Вы не можете отвечать на сообщения
Вы не можете редактировать свои сообщения
Вы не можете удалять свои сообщения
Вы не можете добавлять вложения

Перейти:  

!ВНИМАНИЕ!
 Ресурс не предоставляет электронные версии произведений, а занимается лишь коллекционированием и каталогизацией ссылок, присылаемых и публикуемых на форуме нашими читателями. Если вы являетесь правообладателем какого-либо представленного материала и не желаете чтобы ссылка на него находилась в нашем каталоге, свяжитесь с нами и мы незамедлительно удалим её. Файлы для обмена на трекере предоставлены пользователями сайта, и администрация не несёт ответственности за их содержание. Просьба не заливать файлы, защищенные авторскими правами, а также файлы нелегального содержания!