На всех торрентах на трекере установлена скидка на скачивание в размере 100 процентов(а).
 Возможность скачивания торрента НЕ зависит от ограничений при низком ратио, низком аплоаде, требуемом ратио или требуемом аплоаде.


Начать новую тему Ответить на тему
Статистика раздачи
Размер: 6.23 ГБ | Добавлен: 16 ноя 2014, 22:13 | Скачали: 0
Сидеров: 0  [0 байт/сек]    Личеров: 0  [0 байт/сек]
Пред. тема | След. тема 

Автор
Сообщение

СообщениеДобавлено: 16 ноя 2014, 22:13 

Год выпуска: 1976
Дата мировой премьеры: 3 декабря 1976
Жанр: Боевик, Триллер, Мелодрама, Комедия, Криминал

Режиссер: Артур Хиллер
Сценарий: Колин Хиггинс
Оператор: Дэвид М. Уолш
Музыка: Генри Манчини
Студия: Frank Yablans Presentations, Twentieth Century Fox Film Corporation
Актеры: Джин Уайлдер, Джилл Клейбёрг, Ричард Прайор, Патрик МакГуэн, Нед Битти, Клифтон Джеймс, Рей Уолстон, Стефан Гираш, Лен Бирман, Валери Кёртин, Люсиль Бенсон, Скэтмэн Крозерс, Ричард Кил, Фред Уиллард, Делос В. Смит мл., Матильда Кэлнан, Ник Стюарт, Маргарита Гарсия, Джек Мэтер, Генри Бекман, Стив Уэстон, Гарри Аткин, Ллойд Уайт, Эд МакНамара

Описание фильма:
Издатель Джордж Колдуэлл садится на трансамериканский экспресс «Серебряная стрела», следующий из Лос-Анжелеса в Чикаго. В течение длительной поездки он надеется отдохнуть от трудов праведных, но не тут-то было. Джордж знакомится с прелестной Хилли Бернс, которая оказывается каким-то образом причастна к убийству, происшедшему здесь же, в поезде…

Продолжительность: 01:53:34
Качество видео: HDTVRip
Перевод 1: Профессиональный (двухголосый закадровый)
Перевод 2: Профессиональный (двухголосый закадровый) - НТВ+
Перевод 3: Профессиональный (многоголосый закадровый) - ОРТ
Перевод 4: Авторский (одноголосый закадровый) - А. Михалев



Формат: MKV
Видеокодек: MPEG-4 AVC/H.264
Битрейт видео: ~6700 kb/s
Размер кадра: 1280x672
Аудио 1: Russian - DVO (Dolby AC3, 2 ch) 192 Kbps / 48 000 Hz
Аудио 2: Russian - DVO НТВ+ (Dolby AC3, 2 ch) 192 Kbps / 48 000 Hz
Аудио 3: Russian - MVO ОРТ (Dolby AC3, 2 ch) 192 Kbps / 48 000 Hz
Аудио 4: Russian - Михалев (Dolby AC3, 2 ch) 192 Kbps / 48 000 Hz
Аудио 5: English (Dolby AC3, 6 ch) 384 Kbps / 48 000 Hz
General
Unique ID : 249037477610404954286810633070920722172 (0xBB5ADFA058E3AF528F69C72E7161E6FC)
Complete name : Серебряная стрела. Silver Streak (1976).mkv
Format : Matroska
Format version : Version 2
File size : 6.23 GiB
Duration : 1h 53mn
Overall bit rate : 7 856 Kbps
Movie name : Silver Streak (1976) HDTVRip 720p
Encoded date : UTC 2011-08-11 01:51:08
Writing application : mkvmerge v4.9.1 ('Ich will') сборка от Jul 11 2011 23:53:15
Writing library : libebml v1.2.1 + libmatroska v1.1.1

Video
ID : 1
Format : AVC
Format/Info : Advanced Video Codec
Format profile :
Format settings, CABAC : Yes
Format settings, ReFrames : 5 frames
Codec ID : V_MPEG4/ISO/AVC
Duration : 1h 53mn
Bit rate : 6 700 Kbps
Width : 1 280 pixels
Height : 672 pixels
Display aspect ratio : 1.905
Frame rate mode : Constant
Frame rate : 23.976 fps
Color space : YUV
Chroma subsampling : 4:2:0
Bit depth : 8 bits
Scan type : Progressive
Bits/(Pixel*Frame) : 0.325
Stream size : 5.19 GiB (83%)
Writing library : x264 core 115 r1995 c1e60b9
Encoding settings : cabac=1 / ref=5 / deblock=1:-2:-2 / analyse=0x3:0x113 / me=umh / subme=8 / psy=1 / psy_rd=1.00:0.00 / mixed_ref=1 / me_range=32 / chroma_me=1 / trellis=2 / 8x8dct=1 / cqm=0 / deadzone=21,11 / fast_pskip=0 / chroma_qp_offset=-2 / threads=6 / sliced_threads=0 / nr=0 / decimate=1 / interlaced=0 / bluray_compat=0 / constrained_intra=0 / bframes=4 / b_pyramid=2 / b_adapt=2 / b_bias=0 / direct=3 / weightb=1 / open_gop=0 / weightp=2 / keyint=250 / keyint_min=24 / scenecut=40 / intra_refresh=0 / rc=2pass / mbtree=0 / bitrate=6700 / ratetol=1.0 / qcomp=0.60 / qpmin=10 / qpmax=51 / qpstep=4 / cplxblur=20.0 / qblur=0.5 / ip_ratio=1.40 / pb_ratio=1.30 / aq=1:1.00
Default : Yes
Forced : No

Audio #1
ID : 2
Format : AC-3
Format/Info : Audio Coding 3
Mode extension : CM (complete main)
Format settings, Endianness : Big
Codec ID : A_AC3
Duration : 1h 53mn
Bit rate mode : Constant
Bit rate : 192 Kbps
Channel(s) : 2 channels
Channel positions : Front: L R
Sampling rate : 48.0 KHz
Bit depth : 16 bits
Compression mode : Lossy
Stream size : 156 MiB (2%)
Title : DVO 2.0
Language : Russian
Default : Yes
Forced : No

Audio #2
ID : 3
Format : AC-3
Format/Info : Audio Coding 3
Mode extension : CM (complete main)
Format settings, Endianness : Big
Codec ID : A_AC3
Duration : 1h 53mn
Bit rate mode : Constant
Bit rate : 192 Kbps
Channel(s) : 2 channels
Channel positions : Front: L R
Sampling rate : 48.0 KHz
Bit depth : 16 bits
Compression mode : Lossy
Stream size : 156 MiB (2%)
Title : NTV+ 2.0
Language : Russian
Default : No
Forced : No

Audio #3
ID : 4
Format : AC-3
Format/Info : Audio Coding 3
Mode extension : CM (complete main)
Format settings, Endianness : Big
Codec ID : A_AC3
Duration : 1h 53mn
Bit rate mode : Constant
Bit rate : 192 Kbps
Channel(s) : 2 channels
Channel positions : Front: L R
Sampling rate : 48.0 KHz
Bit depth : 16 bits
Compression mode : Lossy
Stream size : 156 MiB (2%)
Title : ORT 2.0
Language : Russian
Default : No
Forced : No

Audio #4
ID : 5
Format : AC-3
Format/Info : Audio Coding 3
Mode extension : CM (complete main)
Format settings, Endianness : Big
Codec ID : A_AC3
Duration : 1h 53mn
Bit rate mode : Constant
Bit rate : 192 Kbps
Channel(s) : 2 channels
Channel positions : Front: L R
Sampling rate : 48.0 KHz
Bit depth : 16 bits
Compression mode : Lossy
Stream size : 156 MiB (2%)
Title : Mihalev 2.0
Language : Russian
Default : No
Forced : No

Audio #5
ID : 6
Format : AC-3
Format/Info : Audio Coding 3
Mode extension : CM (complete main)
Format settings, Endianness : Big
Codec ID : A_AC3
Duration : 1h 53mn
Bit rate mode : Constant
Bit rate : 384 Kbps
Channel(s) : 6 channels
Channel positions : Front: L C R, Side: L R, LFE
Sampling rate : 48.0 KHz
Bit depth : 16 bits
Compression mode : Lossy
Stream size : 312 MiB (5%)
Title : Original 5.1
Language : English
Default : No
Forced : No
Скриншоты:
загрузка...
Правила, инструкции, FAQ!!!
Торрент  Добавлен [16 ноя 2014, 22:13] Скачать торрент
Скачать торрент
[ Размер 16.43 КБ / Просмотров 2 ]

Статус
Проверен 
 
Размер  6.23 ГБ
Приватный: Нет (DHT включён)
.torrent скачан  0
Как залить торрент? | Как скачать Torrent? | Как смотреть и слушать онлайн?  


     Отправить личное сообщение
   
Страница 1 из 1
Показать сообщения за:  Поле сортировки  
Начать новую тему Ответить на тему

   Похожие торренты   Автор   Ответы   Просмотры   Последнее сообщение 
В этой теме нет новых непрочитанных сообщений. Скачать торрент Проверен Табор уходит в небо (1976) HDTVRip 720p

в форуме 720p | 1080p, Размер: 3.29 ГБ, Здоровье: 100%

Anonymous

0
11|0

21
266

12 июл 2014, 12:34

Anonymous Перейти к последнему сообщению

В этой теме нет новых непрочитанных сообщений. Скачать торрент Проверен Стрела - Сергей Высоцкий - Пропавшие среди живых [1976, FB2, RUS]

в форуме Детективы и Боевики, Размер: 2.73 МБ, Здоровье: 0%

Anonymous

0
0|0

2
0

08 сен 2016, 20:41

Anonymous Перейти к последнему сообщению

В этой теме нет новых непрочитанных сообщений. Скачать торрент Проверен МакSим - Полная дискография и видеография (2006-2015) FLAC, MP3, HDTVRip, HDTVRip 720p, HDTVRip 1080p

в форуме Дискографии (Отечественные), Размер: 24.2 ГБ, Здоровье: 100%

Гость

0
272|150

298
23

20 дек 2015, 12:22

Гость Перейти к последнему сообщению

В этой теме нет новых непрочитанных сообщений. Скачать торрент Проверен (Rock,Singer/Songwriter) Bob Seger & The Silver Bullet Band - Night Moves(1999 Remastered) - 1976, FLAC (tracks+.cue), lossless

в форуме Classic Rock & Hard Rock, Размер: 252.8 МБ, Здоровье: 0%

Anonymous

0
0|0

1
0

03 сен 2016, 12:51

Anonymous Перейти к последнему сообщению

В этой теме нет новых непрочитанных сообщений. Скачать торрент Проверен (Hard-Rock) Silver - Silver - 2001, APE (image+.cue), lossless

в форуме Classic Rock & Hard Rock, Размер: 392.97 МБ, Здоровье: 0%

Anonymous

0
0|0

0
0

03 сен 2016, 12:54

Anonymous Перейти к последнему сообщению



Сейчас этот форум просматривают: нет зарегистрированных пользователей и гости: 3


Вы не можете начинать темы
Вы не можете отвечать на сообщения
Вы не можете редактировать свои сообщения
Вы не можете удалять свои сообщения
Вы не можете добавлять вложения

Перейти:  

!ВНИМАНИЕ!
 Ресурс не предоставляет электронные версии произведений, а занимается лишь коллекционированием и каталогизацией ссылок, присылаемых и публикуемых на форуме нашими читателями. Если вы являетесь правообладателем какого-либо представленного материала и не желаете чтобы ссылка на него находилась в нашем каталоге, свяжитесь с нами и мы незамедлительно удалим её. Файлы для обмена на трекере предоставлены пользователями сайта, и администрация не несёт ответственности за их содержание. Просьба не заливать файлы, защищенные авторскими правами, а также файлы нелегального содержания!