На всех торрентах на трекере установлена скидка на скачивание в размере 100 процентов(а).
 Возможность скачивания торрента НЕ зависит от ограничений при низком ратио, низком аплоаде, требуемом ратио или требуемом аплоаде.


Начать новую тему Ответить на тему
Статистика раздачи
Размер: 7.76 ГБ | Добавлен: 16 ноя 2014, 11:24 | Скачали: 556
Сидеров: 81  [0 байт/сек]    Личеров: 5  [0 байт/сек]
Пред. тема | След. тема 

Автор
Сообщение

СообщениеДобавлено: 16 ноя 2014, 11:24 

Название: Поймай меня, если сможешь
Оригинальное название: Catch Me If You Can
Год выхода: 2002
Жанр: драма, комедия, криминал, биография
Режиссер: Стивен Спилберг / Steven Spielberg

В ролях: Леонардо ДиКаприо, Том Хэнкс, Кристофер Уокен, Мартин Шин, Натали Бэй, Эми Адамс, Джеймс Бролин, Брайан Хау, Фрэнк Джон Хьюз, Стив Исти

О фильме:
Фрэнк Эбегнейл успел поработать врачом, адвокатом и пилотом на пассажирской авиалинии — и все это до достижения полного совершеннолетия в 21 год. Мастер в обмане и жульничестве, он также обладал искусством подделки документов, что в конечном счете принесло ему миллионы долларов, которые он получил по фальшивым чекам.
Агент ФБР Карл Хэнрэтти отдал бы все, чтобы схватить Фрэнка и привлечь к ответственности за свои деяния, но Фрэнк всегда опережает его на шаг, заставляя продолжать погоню.



Выпущено: США, Канада
Продолжительность: 02:20:43
Перевод: Дублированный + Оригинал


Кодек: x264
Качество: BDRip 1080p
Видео: 1920x1040, 7000 Kbps, 23.976 fps
Аудио #1: AC-3, 6 ch, 448 kbps (Rus)
Аудио #2: AC-3, 6 ch, 448 kbps (Eng)
Субтитры: русские, английские

Общее
Уникальный идентификатор : 248938195180097752083166233862540224624 (0xBB47C09FE6D66B88BB58FABE52C5E870)
Полное имя : Поймай меня, если сможешь.2002.BDRip.1080p.Rus.Eng.mkv
Формат : Matroska
Версия формата : Version 4 / Version 2
Размер файла : 7,76 Гбайт
Продолжительность : 2 ч. 20 м.
Общий поток : 7895 Кбит/сек
Название фильма : Поймай меня, если сможешь.2002
Дата кодирования : UTC 2013-03-27 16:36:54
Программа кодирования : mkvmerge v6.1.0 ('Old Devil') built on Mar 4 2013 09:10:42
Библиотека кодирования : libebml v1.3.0 + libmatroska v1.4.0

Видео
Идентификатор : 1
Формат : AVC
Формат/Информация : Advanced Video Codec
Профиль формата : High@L4.1
Параметр CABAC формата : Да
Параметр ReFrames формата : 4 кадра
Идентификатор кодека : V_MPEG4/ISO/AVC
Продолжительность : 2 ч. 20 м.
Битрейт : 7000 Кбит/сек
Ширина : 1920 пикселей
Высота : 1040 пикселей
Соотношение сторон : 1,85:1
Режим частоты кадров : Постоянный
Частота кадров : 23,976 кадра/сек
Цветовое пространство : YUV
Субдискретизация насыщенности : 4:2:0
Битовая глубина : 8 бит
Тип развёртки : Прогрессивная
Бит/(Пиксели*Кадры) : 0.146
Размер потока : 6,73 Гбайт (87%)
Заголовок : Rip by Boriy
Библиотека кодирования : x264 core 130 r2273 b3065e6
Настройки программы : cabac=1 / ref=4 / deblock=1:0:0 / analyse=0x3:0x113 / me=umh / subme=10 / psy=1 / psy_rd=1.00:0.10 / mixed_ref=1 / me_range=32 / chroma_me=1 / trellis=2 / 8x8dct=1 / cqm=0 / deadzone=21,11 / fast_pskip=0 / chroma_qp_offset=-2 / threads=12 / lookahead_threads=1 / sliced_threads=0 / nr=0 / decimate=0 / interlaced=0 / bluray_compat=0 / constrained_intra=0 / bframes=5 / b_pyramid=2 / b_adapt=2 / b_bias=0 / direct=3 / weightb=1 / open_gop=0 / weightp=2 / keyint=240 / keyint_min=23 / scenecut=40 / intra_refresh=0 / rc=2pass / mbtree=0 / bitrate=7000 / ratetol=1.0 / qcomp=0.60 / qpmin=0 / qpmax=69 / qpstep=4 / cplxblur=20.0 / qblur=0.5 / ip_ratio=1.40 / pb_ratio=1.30 / aq=1:0.80
Язык : English
Default : Да
Forced : Нет

Аудио #1
Идентификатор : 2
Формат : AC-3
Формат/Информация : Audio Coding 3
Расширение режима : CM (complete main)
Параметр Endianness формата : Big
Идентификатор кодека : A_AC3
Продолжительность : 2 ч. 20 м.
Вид битрейта : Постоянный
Битрейт : 448 Кбит/сек
Каналы : 6 каналов
Расположение каналов : Front: L C R, Side: L R, LFE
Частота : 48,0 КГц
Битовая глубина : 16 бит
Метод сжатия : С потерями
Размер потока : 451 Мбайт (6%)
Заголовок : Дубляж
Язык : Russian
Default : Да
Forced : Нет

Аудио #2
Идентификатор : 3
Формат : AC-3
Формат/Информация : Audio Coding 3
Расширение режима : CM (complete main)
Параметр Endianness формата : Big
Идентификатор кодека : A_AC3
Продолжительность : 2 ч. 20 м.
Вид битрейта : Постоянный
Битрейт : 448 Кбит/сек
Каналы : 6 каналов
Расположение каналов : Front: L C R, Side: L R, LFE
Частота : 48,0 КГц
Битовая глубина : 16 бит
Метод сжатия : С потерями
Размер потока : 451 Мбайт (6%)
Заголовок : Оригинал
Язык : English
Default : Нет
Forced : Нет

Текст #1
Идентификатор : 4
Формат : UTF-8
Идентификатор кодека : S_TEXT/UTF8
Идентификатор кодека/Информация : UTF-8 Plain Text
Язык : Russian
Default : Нет
Forced : Нет

Текст #2
Идентификатор : 5
Формат : UTF-8
Идентификатор кодека : S_TEXT/UTF8
Идентификатор кодека/Информация : UTF-8 Plain Text
Язык : English
Default : Нет
Forced : Нет

Меню
00:00:00.000 : :Chapter 1
00:04:43.908 : :Chapter 2
00:10:59.450 : :Chapter 3
00:18:35.280 : :Chapter 4
00:25:56.429 : :Chapter 5
00:28:58.737 : :Chapter 6
00:33:59.661 : :Chapter 7
00:38:37.064 : :Chapter 8
00:42:09.944 : :Chapter 9
00:49:06.068 : :Chapter 10
00:56:54.869 : :Chapter 11
01:03:42.527 : :Chapter 12
01:10:05.951 : :Chapter 13
01:22:26.733 : :Chapter 14
01:32:10.399 : :Chapter 15
01:38:26.066 : :Chapter 16
01:43:32.581 : :Chapter 17
01:49:50.417 : :Chapter 18
01:58:00.907 : :Chapter 19
02:04:01.475 : :Chapter 20
02:12:33.278 : :Chapter 21
02:16:00.193 : :Chapter 22
02:20:42.851 : :Chapter 23
загрузка...
Правила, инструкции, FAQ!!!
Торрент  Добавлен [16 ноя 2014, 11:24] Скачать торрент
Скачать торрент
[ Размер 39.35 КБ / Просмотров 9 ]

Статус
Проверен 
 
Размер  7.76 ГБ
Приватный: Нет (DHT включён)
.torrent скачан  556
Как залить торрент? | Как скачать Torrent? | Как смотреть и слушать онлайн?  


     Отправить личное сообщение
   
Страница 1 из 1
Показать сообщения за:  Поле сортировки  
Начать новую тему Ответить на тему

   Похожие торренты   Автор   Ответы   Просмотры   Последнее сообщение 
В этой теме нет новых непрочитанных сообщений. Скачать торрент Проверен Поймай меня, если сможешь / Catch Me If You Can (Стивен Спилберг) [2002, комедия, криминал, биография, BDRip 480p] Dub, MVO, AVO, Original, sub (rus, eng)

в форуме Фильмы для iPod, iPhone, iPad, Размер: 2.58 ГБ, Здоровье: 100%

Гость

0
21|7

45
1

18 май 2015, 10:56

Гость Перейти к последнему сообщению

В этой теме нет новых непрочитанных сообщений. Скачать торрент Проверен [iPad] Поймай меня, если сможешь / Catch Me If You Can (Стивен Спилберг/ Steven Spielberg) [2002, США, Драма, BDRip, 576p] Dub + Original + sub (rus, eng)

в форуме Фильмы для iPod, iPhone, iPad, Размер: 2.42 ГБ, Здоровье: 100%

Anonymous

0
549|19

28
2

11 май 2015, 01:37

Anonymous Перейти к последнему сообщению

В этой теме нет новых непрочитанных сообщений. Скачать торрент Проверен [VIDEO] Поймай меня, если сможешь / Catch Me If You Can (Стивен Спилберг / Steven Spielberg) [2002 г., Драма, Криминал, Биография, BDRip] [AVI, 480x]

в форуме Видео для смартфонов и КПК, Размер: 638.48 МБ, Здоровье: 100%

Anonymous

0
43|14

45
3

02 авг 2014, 17:04

Anonymous Перейти к последнему сообщению

В этой теме нет новых непрочитанных сообщений. Скачать торрент Проверен Поймай меня, если сможешь / Catch Me If You Can (2002) HDRip

в форуме Драмы, Мелодрамы, Размер: 1.45 ГБ, Здоровье: 100%

Anonymous

0
316|12

28
1787

16 ноя 2014, 11:21

Anonymous Перейти к последнему сообщению

В этой теме нет новых непрочитанных сообщений. Скачать торрент Проверен С.Реддинг, Ф.Абигнейл - Поймай меня, если сможешь / Catch Me If You Can [2003, FB2, PDF, RTF, RUS]

в форуме Зарубежная литература (XX и XXI век), Размер: 13.52 МБ, Здоровье: 0%

Anonymous

0
0|0

3
0

08 сен 2016, 19:00

Anonymous Перейти к последнему сообщению



Сейчас этот форум просматривают: нет зарегистрированных пользователей и гости: 1


Вы не можете начинать темы
Вы не можете отвечать на сообщения
Вы не можете редактировать свои сообщения
Вы не можете удалять свои сообщения
Вы не можете добавлять вложения

Перейти:  

!ВНИМАНИЕ!
 Ресурс не предоставляет электронные версии произведений, а занимается лишь коллекционированием и каталогизацией ссылок, присылаемых и публикуемых на форуме нашими читателями. Если вы являетесь правообладателем какого-либо представленного материала и не желаете чтобы ссылка на него находилась в нашем каталоге, свяжитесь с нами и мы незамедлительно удалим её. Файлы для обмена на трекере предоставлены пользователями сайта, и администрация не несёт ответственности за их содержание. Просьба не заливать файлы, защищенные авторскими правами, а также файлы нелегального содержания!