На всех торрентах на трекере установлена скидка на скачивание в размере 100 процентов(а).
 Возможность скачивания торрента НЕ зависит от ограничений при низком ратио, низком аплоаде, требуемом ратио или требуемом аплоаде.


Начать новую тему Ответить на тему
Статистика раздачи
Размер: 7.76 ГБ | Добавлен: 15 ноя 2014, 22:40 | Скачали: 0
Сидеров: 1  [0 байт/сек]    Личеров: 65  [0 байт/сек]
Пред. тема | След. тема 

Автор
Сообщение

СообщениеДобавлено: 15 ноя 2014, 22:40 

    Русское название: 1941
    Оригинальное название: 1941
    Год выхода: 1979
    Жанр: боевик, комедия, военный
    Режиссер: Стивен Спилберг
    Выпущено: США
    Продолжительность: 02:26:05
    Перевод: Профессиональный (Многоголосый закадровый), Авторский (А.Гаврилов)
    В ролях: Дэн Эйкройд, Нед Битти, Джон Белуши, Лоррэйн Гари, Бобби Ди Чикко, Мюррэй Хэмилтон, Кристофер Ли, Тим Мэтисон, Тосиро Мифунэ, Уоррен Оутс


Сюжет фильма
    Комедийный фильм о панике в Лос-Анджелесе после известий о нападении японцев на Перл-Харбор и о приближении японской подводной лодки к берегам Калифорнии с заданием уничтожить Голливуд.


Файл
    Качество: BDRip 720p (исходник Blu-ray Disc Remux)
    Видео: 1280x542, 5682 Кбит/сек, 23,976 кадр/сек, AVC, x264, High@L4.1, 2.35:1, 0.342 Бит/[Пиксели*Кадры]
    Аудио 1: AC-3, 384 Кбит/сек, 6 канала(ов), 48,0 КГц - Многоголосый закадровый / Русский
    Аудио 2: AC-3, 448 Кбит/сек, 6 канала(ов), 48,0 КГц - Многоголосый закадровый / Русский
    Аудио 3: AC-3, 448 Кбит/сек, 6 канала(ов), 48,0 КГц - Одноголосый закадровый, А.Гаврилов / Русский
    Аудио 4: AC-3, 640 Кбит/сек, 6 канала(ов), 48,0 КГц - Оригинал / Английский
    Субтитры: Русские | Полные, Английские | Полные
    Форсированные субтитры: Нет
    Чаптеры (Главы): Есть




Сэмпл
Автор Рипа:


Format : Matroska
Format version : Version 2
File size : 7.76 GiB
Duration : 2h 26mn
Overall bit rate : 7 603 Kbps
Movie name : 1941.(1979).BDRip.720p.[envy]
Encoded date : UTC 2014-11-15 06:34:02
Writing application : mkvmerge v5.8.0 ('No Sleep / Pillow') built on Sep 2 2012 15:37:04
Writing library : libebml v1.2.3 + libmatroska v1.3.0

Video
ID : 1
Format : AVC
Format/Info : Advanced Video Codec
Format profile : High@L4.1
Format settings, CABAC : Yes
Format settings, ReFrames : 11 frames
Codec ID : V_MPEG4/ISO/AVC
Duration : 2h 26mn
Bit rate : 5 682 Kbps
Width : 1 280 pixels
Height : 542 pixels
Display aspect ratio : 2.35:1
Frame rate mode : Constant
Frame rate : 23.976 fps
Color space : YUV
Chroma subsampling : 4:2:0
Bit depth : 8 bits
Scan type : Progressive
Bits/(Pixel*Frame) : 0.342
Stream size : 5.65 GiB (73%)
Title : 1941.(1979).BDRip.720p.[envy]
Writing library : x264 core 142 r2479 dd79a61
Encoding settings : cabac=1 / ref=11 / deblock=1:-3:-2 / analyse=0x3:0x113 / me=umh / subme=11 / psy=1 / psy_rd=1.00:0.00 / mixed_ref=1 / me_range=48 / chroma_me=1 / trellis=2 / 8x8dct=1 / cqm=0 / deadzone=21,11 / fast_pskip=0 / chroma_qp_offset=-2 / threads=12 / lookahead_threads=2 / sliced_threads=0 / nr=0 / decimate=1 / interlaced=0 / bluray_compat=0 / constrained_intra=0 / bframes=7 / b_pyramid=2 / b_adapt=2 / b_bias=0 / direct=3 / weightb=1 / open_gop=0 / weightp=2 / keyint=240 / keyint_min=23 / scenecut=40 / intra_refresh=0 / rc=2pass / mbtree=0 / bitrate=5682 / ratetol=2.0 / qcomp=0.60 / qpmin=0 / qpmax=69 / qpstep=4 / cplxblur=20.0 / qblur=0.5 / ip_ratio=1.40 / pb_ratio=1.30 / aq=2:1.00
Language : English
Default : Yes
Forced : No

Audio #1
ID : 2
Format : AC-3
Format/Info : Audio Coding 3
Mode extension : CM (complete main)
Format settings, Endianness : Big
Codec ID : A_AC3
Duration : 2h 26mn
Bit rate mode : Constant
Bit rate : 384 Kbps
Channel(s) : 6 channels
Channel positions : Front: L C R, Side: L R, LFE
Sampling rate : 48.0 KHz
Bit depth : 16 bits
Compression mode : Lossy
Stream size : 401 MiB (5%)
Title : MVO
Language : Russian
Default : Yes
Forced : No

Audio #2
ID : 3
Format : AC-3
Format/Info : Audio Coding 3
Mode extension : CM (complete main)
Format settings, Endianness : Big
Codec ID : A_AC3
Duration : 2h 26mn
Bit rate mode : Constant
Bit rate : 448 Kbps
Channel(s) : 6 channels
Channel positions : Front: L C R, Side: L R, LFE
Sampling rate : 48.0 KHz
Bit depth : 16 bits
Compression mode : Lossy
Stream size : 468 MiB (6%)
Title : MVO
Language : Russian
Default : No
Forced : No

Audio #3
ID : 4
Format : AC-3
Format/Info : Audio Coding 3
Mode extension : CM (complete main)
Format settings, Endianness : Big
Codec ID : A_AC3
Duration : 2h 26mn
Bit rate mode : Constant
Bit rate : 448 Kbps
Channel(s) : 6 channels
Channel positions : Front: L C R, Side: L R, LFE
Sampling rate : 48.0 KHz
Bit depth : 16 bits
Compression mode : Lossy
Stream size : 468 MiB (6%)
Title : Gavrilov
Language : Russian
Default : No
Forced : No

Audio #4
ID : 5
Format : AC-3
Format/Info : Audio Coding 3
Mode extension : CM (complete main)
Format settings, Endianness : Big
Codec ID : A_AC3
Duration : 2h 26mn
Bit rate mode : Constant
Bit rate : 640 Kbps
Channel(s) : 6 channels
Channel positions : Front: L C R, Side: L R, LFE
Sampling rate : 48.0 KHz
Bit depth : 16 bits
Compression mode : Lossy
Stream size : 669 MiB (8%)
Title : Eng
Language : English
Default : No
Forced : No

Text #1
ID : 6
Format : UTF-8
Codec ID : S_TEXT/UTF8
Codec ID/Info : UTF-8 Plain Text
Title : full
Language : Russian
Default : No
Forced : No

Text #2
ID : 7
Format : UTF-8
Codec ID : S_TEXT/UTF8
Codec ID/Info : UTF-8 Plain Text
Title : full
Language : English
Default : No
Forced : No

Menu
00:00:00.000 : en:Chapter 01
00:07:20.272 : en:Chapter 02
00:16:35.953 : en:Chapter 03
00:25:31.987 : en:Chapter 04
00:37:06.724 : en:Chapter 05
00:48:00.752 : en:Chapter 06
00:55:04.718 : en:Chapter 07
01:08:51.460 : en:Chapter 08
01:16:06.311 : en:Chapter 09
01:27:29.994 : en:Chapter 10
01:35:22.425 : en:Chapter 11
01:41:23.035 : en:Chapter 12
01:46:49.986 : en:Chapter 13
01:56:24.477 : en:Chapter 14
02:03:13.719 : en:Chapter 15
02:10:47.673 : en:Chapter 16
02:16:20.672 : en:Chapter 17
02:19:51.466 : en:Chapter 18



#777
загрузка...
Правила, инструкции, FAQ!!!
Торрент  Добавлен [15 ноя 2014, 22:40] Скачать торрент
Скачать торрент
[ Размер 39.31 КБ / Просмотров 3 ]

Статус
Проверен 
 
Размер  7.76 ГБ
Приватный: Нет (DHT включён)
.torrent скачан  0
Как залить торрент? | Как скачать Torrent? | Как смотреть и слушать онлайн?  


     Отправить личное сообщение
   
Страница 1 из 1
Показать сообщения за:  Поле сортировки  
Начать новую тему Ответить на тему

   Похожие торренты   Автор   Ответы   Просмотры   Последнее сообщение 
В этой теме нет новых непрочитанных сообщений. Скачать торрент Проверен Торжественный Марш, Посвященный 74-й Годовщине Парада 7 Ноября 1941 года [Москва, Красная Площадь] (2015) HDTVRip 720p

в форуме Документальные, Размер: 1.33 ГБ, Здоровье: 100%

Anonymous

0
47|9

195
47

08 ноя 2015, 03:12

Anonymous Перейти к последнему сообщению

В этой теме нет новых непрочитанных сообщений. Скачать торрент В июне 1941 (2008) DVDRip

в форуме Военные, Размер: 1.46 ГБ, Здоровье: 0%

Anonymous

0
0|0

68
0

05 янв 2014, 16:29

Anonymous Перейти к последнему сообщению

В этой теме нет новых непрочитанных сообщений. Скачать торрент Проверен C. Кудрявцев | Простейшие летающие модели (1941) [PDF]

в форуме Настольные игры и Поделки, Размер: 16.88 МБ, Здоровье: 100%

Гость

0
19|4

26
5

29 сен 2015, 20:00

Гость Перейти к последнему сообщению

В этой теме нет новых непрочитанных сообщений. Скачать торрент Проверен Келлер Б. А. - Дикие съедобные растения [1941, DjVu, RUS]

в форуме Кулинария, Размер: 1.61 МБ, Здоровье: 0%

Anonymous

0
0|0

0
0

19 окт 2016, 23:24

Anonymous Перейти к последнему сообщению

В этой теме нет новых непрочитанных сообщений. Скачать торрент Вадим Мельнюшкин | Окруженец. Затерянный в 1941-м (2013) [FB2]

в форуме Фантастика, фэнтези, Размер: 1.38 МБ, Здоровье: 100%

Anonymous

0
35|2

41
5

11 апр 2014, 23:33

Anonymous Перейти к последнему сообщению



Сейчас этот форум просматривают: нет зарегистрированных пользователей и гости: 1


Вы не можете начинать темы
Вы не можете отвечать на сообщения
Вы не можете редактировать свои сообщения
Вы не можете удалять свои сообщения
Вы не можете добавлять вложения

Перейти:  

!ВНИМАНИЕ!
 Ресурс не предоставляет электронные версии произведений, а занимается лишь коллекционированием и каталогизацией ссылок, присылаемых и публикуемых на форуме нашими читателями. Если вы являетесь правообладателем какого-либо представленного материала и не желаете чтобы ссылка на него находилась в нашем каталоге, свяжитесь с нами и мы незамедлительно удалим её. Файлы для обмена на трекере предоставлены пользователями сайта, и администрация не несёт ответственности за их содержание. Просьба не заливать файлы, защищенные авторскими правами, а также файлы нелегального содержания!