На всех торрентах на трекере установлена скидка на скачивание в размере 100 процентов(а).
 Возможность скачивания торрента НЕ зависит от ограничений при низком ратио, низком аплоаде, требуемом ратио или требуемом аплоаде.


Начать новую тему Ответить на тему
Статистика раздачи
Размер: 7.95 ГБ | Добавлен: 05 апр 2013, 09:59 | Скачали: 1
Сидеров: 0  [0 байт/сек]    Личеров: 0  [0 байт/сек]
Пред. тема | След. тема 

Автор
Сообщение

СообщениеДобавлено: 05 апр 2013, 09:59 

Название: Огненная стена
Оригинальное название: Firewall
Год выхода: 2006
Жанр: Триллер, криминал
Режиссер: Ричард Лонкрэйн

В фильме снимались: Харрисон Форд, Пол Беттани, Вирджиния Мэдсен, Мэри Линн Райскуб, Роберт Патрик, Роберт Форстер, Николай Костер-Валдау

Вкратце:
Джек Стенфилд - ведущий специалист в области разработки систем компьютерной безопасности, работающий в одном из крупнейших банков Сиэтла. Структура программного обеспечения банка, которую он создал, идеальна и полностью исключает возможность доступа к данным извне. Но преступники нашли и в ней слабое место - им оказался сам Стенфилд... В заложниках оказалась его семья и теперь Джека пытаются заставить помочь злоумышленникам в краже 100 миллионов долларов из его же банка. Но у Джека несколько иные планы...



Выпущено: США, Австралия / Warner Bros., Village Roadshow Pictures, Beacon Pictures, Thunder Road
Продолжительность: 01:44:52
Перевод: Дублированный, профессиональный двухголосый (Tycoon, Гланц и Королёва)

Формат: mkv
Кодек: MPEG-4 AVC
Качество: BDRip 1080p
Видео: 1920x792, 23.976 fps, 8869 kbps
Звук:
Russian: AC3, 448 Kbps (6 ch) Дублированный
Russian: AC3, 448 Kbps (6 ch) Профессиональный двухголосый (Tycoon)
Russian: AC3, 448 Kbps (6 ch) Профессиональный двухголосый (Гланц и Королёва)
English: AC3, 640 Kbps (6 ch) Original
Субтитры: Russian, English

Общее
Уникальный идентификатор : 214520585703456880647883606243447530913 (0xA1632976D33BBBD8958F09EFD9BDE5A1)
Полное имя : Firewall.2006.х264.BDRip.1080p.mkv
Формат : Matroska
Версия формата : Version 2
Размер файла : 7,95 Гбайт
Продолжительность : 1 ч. 44 м.
Общий поток : 10,8 Мбит/сек
Название фильма : ☭WIDDER☭
Дата кодирования : UTC 2013-04-04 20:05:09
Программа кодирования : mkvmerge v4.5.0 ('Speed of Light') сборка от Feb 1 2011 02:10:32
Библиотека кодирования : libebml v1.2.0 + libmatroska v1.1.0

Видео
Идентификатор : 1
Формат : AVC
Формат/Информация : Advanced Video Codec
Профиль формата : High@L4.1
Параметр CABAC формата : Да
Параметр ReFrames формата : 5 кадров
Идентификатор кодека : V_MPEG4/ISO/AVC
Продолжительность : 1 ч. 44 м.
Битрейт : 8869 Кбит/сек
Ширина : 1920 пикселей
Высота : 792 пикселя
Соотношение сторон : 2,40:1
Режим частоты кадров : Постоянный
Частота кадров : 23,976 кадра/сек
Цветовое пространство : YUV
Субдискретизация насыщенности : 4:2:0
Битовая глубина : 8 бит
Тип развёртки : Прогрессивная
Бит/(Пиксели*Кадры) : 0.243
Размер потока : 6,34 Гбайт (80%)
Заголовок : Firewall (2006)
Библиотека кодирования : x264 core 130 r2273 b3065e6
Настройки программы : cabac=1 / ref=5 / deblock=1:-3:-3 / analyse=0x3:0x133 / me=umh / subme=11 / psy=1 / psy_rd=1.00:0.00 / mixed_ref=1 / me_range=48 / chroma_me=1 / trellis=2 / 8x8dct=1 / cqm=0 / deadzone=21,11 / fast_pskip=0 / chroma_qp_offset=-2 / threads=12 / lookahead_threads=1 / sliced_threads=0 / nr=0 / decimate=1 / interlaced=0 / bluray_compat=0 / constrained_intra=0 / bframes=5 / b_pyramid=2 / b_adapt=2 / b_bias=0 / direct=3 / weightb=1 / open_gop=0 / weightp=2 / keyint=240 / keyint_min=23 / scenecut=40 / intra_refresh=0 / rc_lookahead=60 / rc=2pass / mbtree=0 / bitrate=8869 / ratetol=1.0 / qcomp=0.60 / qpmin=0 / qpmax=69 / qpstep=4 / cplxblur=20.0 / qblur=0.5 / vbv_maxrate=62500 / vbv_bufsize=78125 / nal_hrd=none / ip_ratio=1.40 / pb_ratio=1.30 / aq=2:0.80
Язык : English
Default : Да
Forced : Нет

Аудио #1
Идентификатор : 2
Формат : AC-3
Формат/Информация : Audio Coding 3
Расширение режима : CM (complete main)
Параметр Endianness формата : Big
Идентификатор кодека : A_AC3
Продолжительность : 1 ч. 44 м.
Вид битрейта : Постоянный
Битрейт : 448 Кбит/сек
Каналы : 6 каналов
Расположение каналов : Front: L C R, Side: L R, LFE
Частота : 48,0 КГц
Битовая глубина : 16 бит
Метод сжатия : С потерями
Размер потока : 336 Мбайт (4%)
Заголовок : AC3, 448 Kbps (6 ch) Дублированный
Язык : Russian
Default : Да
Forced : Нет

Аудио #2
Идентификатор : 3
Формат : AC-3
Формат/Информация : Audio Coding 3
Расширение режима : CM (complete main)
Параметр Endianness формата : Big
Идентификатор кодека : A_AC3
Продолжительность : 1 ч. 44 м.
Вид битрейта : Постоянный
Битрейт : 448 Кбит/сек
Каналы : 6 каналов
Расположение каналов : Front: L C R, Side: L R, LFE
Частота : 48,0 КГц
Битовая глубина : 16 бит
Метод сжатия : С потерями
Размер потока : 336 Мбайт (4%)
Заголовок : AC3, 448 Kbps (6 ch) профессиональный двухголосый (Tycoon)
Язык : Russian
Default : Нет
Forced : Нет

Аудио #3
Идентификатор : 4
Формат : AC-3
Формат/Информация : Audio Coding 3
Расширение режима : CM (complete main)
Параметр Endianness формата : Big
Идентификатор кодека : A_AC3
Продолжительность : 1 ч. 44 м.
Вид битрейта : Постоянный
Битрейт : 448 Кбит/сек
Каналы : 6 каналов
Расположение каналов : Front: L C R, Side: L R, LFE
Частота : 48,0 КГц
Битовая глубина : 16 бит
Метод сжатия : С потерями
Размер потока : 336 Мбайт (4%)
Заголовок : AC3, 448 Kbps (6 ch) Профессиональный двухголосый (Гланц и Королёва)
Язык : Russian
Default : Нет
Forced : Нет

Аудио #4
Идентификатор : 5
Формат : AC-3
Формат/Информация : Audio Coding 3
Расширение режима : CM (complete main)
Параметр Endianness формата : Big
Идентификатор кодека : A_AC3
Продолжительность : 1 ч. 44 м.
Вид битрейта : Постоянный
Битрейт : 640 Кбит/сек
Каналы : 6 каналов
Расположение каналов : Front: L C R, Side: L R, LFE
Частота : 48,0 КГц
Битовая глубина : 16 бит
Метод сжатия : С потерями
Размер потока : 481 Мбайт (6%)
Заголовок : AC3, 640 Kbps (6 ch) Original
Язык : English
Default : Нет
Forced : Нет

Текст #1
Идентификатор : 6
Формат : UTF-8
Идентификатор кодека : S_TEXT/UTF8
Идентификатор кодека/Информация : UTF-8 Plain Text
Язык : Russian
Default : Нет
Forced : Нет

Текст #2
Идентификатор : 7
Формат : UTF-8
Идентификатор кодека : S_TEXT/UTF8
Идентификатор кодека/Информация : UTF-8 Plain Text
Язык : English
Default : Нет
Forced : Нет

Меню
00:00:00.000 : :Chapter 01
00:03:13.359 : :Chapter 02
00:06:31.390 : :Chapter 03
00:09:14.554 : :Chapter 04
00:11:47.205 : :Chapter 05
00:16:51.510 : :Chapter 06
00:23:21.900 : :Chapter 07
00:28:51.730 : :Chapter 08
00:33:32.010 : :Chapter 09
00:38:15.292 : :Chapter 10
00:40:40.771 : :Chapter 11
00:43:35.612 : :Chapter 12
00:48:25.902 : :Chapter 13
00:52:49.498 : :Chapter 14
00:55:21.318 : :Chapter 15
00:58:07.817 : :Chapter 16
01:01:52.875 : :Chapter 17
01:06:56.512 : :Chapter 18
01:10:28.224 : :Chapter 19
01:12:36.685 : :Chapter 20
01:16:35.090 : :Chapter 21
01:20:42.003 : :Chapter 22
01:24:08.042 : :Chapter 23
01:28:16.124 : :Chapter 24
01:31:51.839 : :Chapter 25
01:35:21.716 : :Chapter 26
01:37:57.537 : :Chapter 27
01:41:43.097 : :Chapter 28
____________________________________________
x264 [info]: frame I:1211 Avg QP:14.55 size:139858
x264 [info]: frame P:39148 Avg QP:16.49 size: 73404
x264 [info]: frame B:110498 Avg QP:18.60 size: 35546




Релиз от:
загрузка...
Правила, инструкции, FAQ!!!
Торрент  Добавлен [05 апр 2013, 09:59] Скачать торрент
Скачать торрент
[ Размер 40.16 КБ / Просмотров 13 ]

Статус  
 
Размер  7.95 ГБ
Приватный: Нет (DHT включён)
.torrent скачан  1
Как залить торрент? | Как скачать Torrent? | Как смотреть и слушать онлайн?  


     Отправить личное сообщение
   
Страница 1 из 1
Показать сообщения за:  Поле сортировки  
Начать новую тему Ответить на тему

   Похожие торренты   Автор   Ответы   Просмотры   Последнее сообщение 
В этой теме нет новых непрочитанных сообщений. Скачать торрент Огненная стена / Firewall (Ричард Лонкрэйн / Richard Loncraine) [2006 г., триллер, криминал, HDRip] (Tycoon-studio)

в форуме Триллеры, Размер: 1.46 ГБ, Здоровье: 100%

Anonymous

0
1|0

50
0

12 фев 2014, 11:44

Anonymous Перейти к последнему сообщению

В этой теме нет новых непрочитанных сообщений. Скачать торрент Огненная буря / Firestorm / Fung bou (2013) BDRip 1080p | L2

в форуме 720p | 1080p, Размер: 8.41 ГБ, Здоровье: 0%

Anonymous

0
0|0

27
0

08 мар 2014, 09:37

Anonymous Перейти к последнему сообщению

В этой теме нет новых непрочитанных сообщений. Скачать торрент Стена / Die Wand / The Wall (2012) BDRip 1080p | A, L1

в форуме 720p | 1080p, Размер: 10.06 ГБ, Здоровье: 0%

Anonymous

0
0|0

22
0

04 мар 2014, 17:59

Anonymous Перейти к последнему сообщению

В этой теме нет новых непрочитанных сообщений. Скачать торрент Северная стена / The North Face / Nordwand (2008) BDRip 1080p | SaTI

в форуме 720p | 1080p, Размер: 13.63 ГБ, Здоровье: 100%

Anonymous

0
1|0

16
2

30 дек 2013, 21:31

Anonymous Перейти к последнему сообщению

В этой теме нет новых непрочитанных сообщений. Скачать торрент Проверен Роджер Уотерс: Стена / Roger Waters the Wall (2015) BDRip 1080p от HDLine

в форуме Концерты (HD-Video), Размер: 10.09 ГБ, Здоровье: 100%

Гость

0
656|16

435
62

18 ноя 2015, 20:22

Гость Перейти к последнему сообщению



Сейчас этот форум просматривают: нет зарегистрированных пользователей и гости: 3


Вы не можете начинать темы
Вы не можете отвечать на сообщения
Вы не можете редактировать свои сообщения
Вы не можете удалять свои сообщения
Вы не можете добавлять вложения

Перейти:  

!ВНИМАНИЕ!
 Ресурс не предоставляет электронные версии произведений, а занимается лишь коллекционированием и каталогизацией ссылок, присылаемых и публикуемых на форуме нашими читателями. Если вы являетесь правообладателем какого-либо представленного материала и не желаете чтобы ссылка на него находилась в нашем каталоге, свяжитесь с нами и мы незамедлительно удалим её. Файлы для обмена на трекере предоставлены пользователями сайта, и администрация не несёт ответственности за их содержание. Просьба не заливать файлы, защищенные авторскими правами, а также файлы нелегального содержания!